Завантажити та скачати торренти українською


Блакитна лагуна / The Blue Lagoon (1980) 1080p Ukr/Eng | Sub Eng

Нові коментарі

Нова тема   Відповісти
Автор Повідомлення
tarasyk98 
Поважний учасник


З нами з: 19.12.13
Востаннє: 02.12.16
Повідомлень: 201

2014-12-20 15:30  
Блакитна лагуна / The Blue Lagoon (1980) 1080p Ukr/Eng | Sub Eng



Жанр: мелодрама, пригодницький
Країна: США



Кінокомпанія: Columbia Pictures
Режисер: Рендел Клейзер
Актори: Брук Шилдс, Крістофер Еткінс, Лео Маккерн, Вільям Деніелс, Елва Джозефсон, Глен Коен

Сюжет:
Одного разу у відкритому морі на кораблі сталася пожежа, внаслідок чого кораблень пішов на дно. У одному з човнів врятувалися двоє дітей (син капітана та його племінниця), а також корабельний кок, який наглядав за ними. У іншому човні врятувався сам капітан та його команда. Обидва кораблі понесло у різні боки. Корабель з дітьми одного разу прийшов до берега безлюдного острова.

Хлопчик і дівчинка почали жити довгі роки на прекрасному тропічному острові. Але з часом вони дорослішають, і у їхніх серцях зароджується справжнє, чисте кохання...


Тривалість: 01:44:44
Якість:
Відео:
кодек:
розмір кадру: 1920х1040
бітрейт: 12400 кб/с

Аудіо # 1:
мова: українська
переклад: багатоголосий закадровий
кодек: 2.0
бітрейт: 192 кб/с

Аудіо # 2:
мова: англійська
переклад: оригінал
кодек: 5.1
бітрейт: 1509 кб/с

Джерело озвучення: на замовлення


Субтитри:
мова: англійська
тип: програмні (м'які)
формат: *.srt
MediaInfo
General
Unique ID : 176910462184817073968950481161691345550 (0x8517B735799439D5A492B1C32710328E)
Complete name : D:\Відео\The Blue Lagoon (1980) 1080p [Hurtom].mkv
Format : Matroska
Format version : Version 4 / Version 2
File size : 10.5 GiB
Duration : 1h 44mn
Overall bit rate : 14.4 Mbps
Movie name : Голубая Лагуна / The Blue Lagoon / 1980 / -- STarankov
Encoded date : UTC 2014-12-20 12:31:31
Writing application : mkvmerge v7.1.0 ('Good Love') 64bit built on Jul 27 2014 13:06:55
Writing library : libebml v1.3.0 + libmatroska v1.4.1
_STATISTICS_WRITING_APP : mkvmerge v7.1.0 ('Good Love') 64bit built on Jul 27 2014 13:06:55
_STATISTICS_WRITING_DATE_UT : 2014-12-20 12:31:31
_STATISTICS_TAGS : BPS DURATION NUMBER_OF_FRAMES NUMBER_OF_BYTES
DURATION : 01:39:30.130000000
NUMBER_OF_FRAMES : 617
NUMBER_OF_BYTES : 20885

Video
ID : 1
Format : AVC
Format/Info : Advanced Video Codec
Format profile : [email protected]
Format settings, CABAC : Yes
Format settings, ReFrames : 4 frames
Codec ID : V_MPEG4/ISO/AVC
Duration : 1h 44mn
Bit rate : 12.4 Mbps
Width : 1 920 pixels
Height : 1 040 pixels
Display aspect ratio : 1.85:1
Frame rate mode : Constant
Frame rate : 23.976 fps
Color space : YUV
Chroma subsampling : 4:2:0
Bit depth : 8 bits
Scan type : Progressive
Bits/(Pixel*Frame) : 0.259
Stream size : 9.09 GiB (86%)
Writing library : core 130 r2273 b3065e6
Encoding settings : cabac=1 / ref=4 / deblock=1:-1:-1 / analyse=0x3:0x113 / me=umh / subme=9 / psy=1 / psy_rd=1.00:0.15 / mixed_ref=1 / me_range=24 / chroma_me=1 / trellis=2 / 8x8dct=1 / cqm=0 / deadzone=21,11 / fast_pskip=1 / chroma_qp_offset=-3 / threads=6 / lookahead_threads=1 / sliced_threads=0 / nr=0 / decimate=1 / interlaced=0 / bluray_compat=0 / constrained_intra=0 / bframes=8 / b_pyramid=2 / b_adapt=2 / b_bias=0 / direct=1 / weightb=0 / open_gop=0 / weightp=2 / keyint=230 / keyint_min=23 / scenecut=40 / intra_refresh=0 / rc=crf / mbtree=0 / crf=22.5 / qcomp=0.60 / qpmin=0 / qpmax=69 / qpstep=4 / ip_ratio=1.40 / pb_ratio=1.30 / aq=1:1.00
Language : English
Default : Yes
Forced : No
DURATION : 01:44:44.153000000
NUMBER_OF_FRAMES : 150669
NUMBER_OF_BYTES : 9980339055
_STATISTICS_WRITING_APP : mkvmerge v7.1.0 ('Good Love') 64bit built on Jul 27 2014 13:06:55
_STATISTICS_WRITING_DATE_UT : 2014-12-20 12:31:31
_STATISTICS_TAGS : BPS DURATION NUMBER_OF_FRAMES NUMBER_OF_BYTES

Audio #1
ID : 2
Format : AC-3
Format/Info : Audio Coding 3
Mode extension : CM (complete main)
Format settings, Endianness : Big
Codec ID : A_AC3
Duration : 1h 44mn
Bit rate mode : Constant
Bit rate : 192 Kbps
Channel(s) : 2 channels
Channel positions : Front: L R
Sampling rate : 48.0 KHz
Bit depth : 16 bits
Compression mode : Lossy
Stream size : 144 MiB (1%)
Title : Многоголосый закадровый, Так Треба Продакшен
Language : Ukrainian
Default : No
Forced : Yes

Audio #2
ID : 3
Format :
Format/Info : Digital Theater Systems
Mode : 16
Format settings, Endianness : Big
Codec ID : A_DTS
Duration : 1h 44mn
Bit rate mode : Constant
Bit rate : 1 509 Kbps
Channel(s) : 6 channels
Channel positions : Front: L C R, Side: L R, LFE
Sampling rate : 48.0 KHz
Bit depth : 24 bits
Compression mode : Lossy
Stream size : 1.10 GiB (10%)
Language : English
Default : No
Forced : No

Text
ID : 4
Format : UTF-8
Codec ID : S_TEXT/UTF8
Codec ID/Info : UTF-8 Plain Text
Language : English
Default : No
Forced : No
Скріншоти







Джерело: &
Особиста оцінка: 0 - не дивився

Українська доріжка - ua2004, drakon87 (Гуртом), ріп відео - slet (він же msltel, STarankov) (кінозал)

Блакитна лагуна / The Blue Lagoon (1980) 1080p Ukr/Eng | Sub Eng


Блакитна лагуна / The Blue Lagoon (1980) 1080p Ukr/Eng | Sub Eng


Срібний реліз (на рейтинг впливає 50% завантаженого)
 Трекер:    Зареєстрований   

Завантажити / скачати фільм українською



відео для новачків



 Зареєстрований:   2014-12-20 15:30
 Розмір:   10.54 GB 
 Оцінка фільму:   7.9/10 (Голосів: 7)
   
Інші релізи
igor911 
Відео Гуртом
Відео Гуртом


З нами з: 18.01.08
Востаннє: 02.12.16
Повідомлень: 5106

2014-12-20 18:03  
tarasyk98, у першоджерелі релізу ще були дві оригінальні доріжки з коментарями. Будь ласка залишай їх у релізах 1080p - це має бути еталонний реліз в максимальній "комплектації" (звичайно, якщо ти не викладатимеш блурей/ремукс з цими доріжками і не підтримуватимеш його постійно).
Seriy100293 
VIP


З нами з: 17.08.11
Востаннє: 04.09.16
Повідомлень: 307

2015-02-21 21:28  
Чи зробить хто-небудь або AVC?
igor911 
Відео Гуртом
Відео Гуртом


З нами з: 18.01.08
Востаннє: 02.12.16
Повідомлень: 5106

2015-02-21 22:45  
Seriy100293, можеш зробити замовлення у відповідній темі http://toloka.to/t6789
igor911 
Відео Гуртом
Відео Гуртом


З нами з: 18.01.08
Востаннє: 02.12.16
Повідомлень: 5106

2015-04-07 21:27  
звичайний в AVI: Блакитна лагуна / The Blue Lagoon (1980) Ukr/Eng | Sub Eng

Додано через 5 хвилин 29 секунд:

tarasyk98, на майбутнє, який був сенс (крім рейтинга) викладати 1080р з меншим бітрейтом, ніж у твого ж релізу 720р? Через малу кількість сідів на старих фільмах маємо мертвий реліз (720р), хоч він і якісніший. А був лише він - хтось би сідував.

Ваш часовий пояс: GMT + 2 Години

Нова тема   Відповісти