Завантажити та скачати торренти українською


Більше, ніж кохання / A Lot Like Love (2005) 720p Ukr/Eng | Sub Eng

Нові коментарі

Нова тема   Відповісти
Останній раз роздавалося predators (2016-12-01)
Автор Повідомлення
tarasyk98 
Поважний учасник


З нами з: 19.12.13
Востаннє: 10.12.16
Повідомлень: 201

2014-12-19 19:28  
Більше, ніж кохання / A Lot Like Love (2005) 720p Ukr/Eng | Sub Eng

Більше, ніж кохання / A Lot Like Love (2005) 720p Ukr/Eng | Sub Eng


Жанр: романтичний, комедія, мелодрама
Країна: США



Кінокомпанія: Touchstone Pictures, Beacon Communications
Режисер: Найджел Коул
Актори: Аманда Піт, Ештон Катчер, Терін Меннінг, Емі Гарсія, Лі Гарлінгтон, Берді М. Хейл

Сюжет:
Олівер і Емілі познайомилися під час польоту до Нью-Йорка сім років тому. Тоді між ними не проскочило іскри, але доля із заздрістю продовжувала зіштовхувати їх рік за роком і незабаром їхні стосунки переросли в дружбу. Олівер закохувався в інших дівчат, Емілі спілкувалася з іншими хлопцями, ділячись один з одним своїми переживаннями - і продовжувалося це до тих пір, поки вони не зрозуміли, що щастя всі ці роки було зовсім поряд і що вони створені один для одного.


Тривалість: 01:42:29
Якість:
Відео:
кодек:
розмір кадру: 1280х696
бітрейт: 4438 кб/с

Аудіо # 1:
мова: українська (+ також окремим файлом)
переклад: двоголосий закадровий
кодек: 2.0
бітрейт: 192 кб/с

Аудіо # 2:
мова: англійська (+ також окремим файлом)
переклад: оригінал
кодек: 5.1
бітрейт: 448 кб/с

Джерело озвучення:


Субтитри:
мова: англійська
тип: програмні (м'які)
формат: *.srt
MediaInfo
General
Unique ID : 249356761760404795675191341306563751343 (0xBB985D8CE27B06C3BBD7D2B75C236DAF)
Complete name : D:\Відео\A Lot Like Love (2005) [Ukr, Eng] [Hurtom]\A Lot Like Love (2005) 720p [Hurtom].mkv
Format : Matroska
Format version : Version 4 / Version 2
File size : 3.63 GiB
Duration : 1h 42mn
Overall bit rate : 5 074 Kbps
Movie name : A Lot Like Love (2005) - Release for HDCLUB
Encoded date : UTC 2014-12-19 17:08:06
Writing application : mkvmerge v7.1.0 ('Good Love') 64bit built on Jul 27 2014 13:06:55
Writing library : libebml v1.3.0 + libmatroska v1.4.1
_STATISTICS_WRITING_APP : mkvmerge v7.1.0 ('Good Love') 64bit built on Jul 27 2014 13:06:55
_STATISTICS_WRITING_DATE_UT : 2014-12-19 17:08:06
_STATISTICS_TAGS : BPS DURATION NUMBER_OF_FRAMES NUMBER_OF_BYTES
DURATION : 01:42:29.408000000
NUMBER_OF_FRAMES : 192169
NUMBER_OF_BYTES : 344366848

Video
ID : 1
Format : AVC
Format/Info : Advanced Video Codec
Format profile : [email protected]
Format settings, CABAC : Yes
Format settings, ReFrames : 8 frames
Codec ID : V_MPEG4/ISO/AVC
Duration : 1h 42mn
Bit rate : 4 438 Kbps
Width : 1 280 pixels
Height : 696 pixels
Display aspect ratio : 1.85:1
Frame rate mode : Constant
Frame rate : 25.000 fps
Color space : YUV
Chroma subsampling : 4:2:0
Bit depth : 8 bits
Scan type : Progressive
Bits/(Pixel*Frame) : 0.199
Stream size : 3.10 GiB (85%)
Title : Release for HDCLUB
Writing library : core 120 r2120 0c7dab9
Encoding settings : cabac=1 / ref=8 / deblock=1:-3:-3 / analyse=0x3:0x113 / me=umh / subme=11 / psy=1 / psy_rd=1.00:0.00 / mixed_ref=1 / me_range=32 / chroma_me=1 / trellis=2 / 8x8dct=1 / cqm=0 / deadzone=21,11 / fast_pskip=0 / chroma_qp_offset=-2 / threads=6 / sliced_threads=0 / nr=0 / decimate=0 / interlaced=0 / bluray_compat=0 / constrained_intra=0 / bframes=12 / b_pyramid=2 / b_adapt=2 / b_bias=0 / direct=3 / weightb=1 / open_gop=0 / weightp=2 / keyint=250 / keyint_min=25 / scenecut=40 / intra_refresh=0 / rc_lookahead=40 / rc=2pass / mbtree=0 / bitrate=4438 / ratetol=1.0 / qcomp=0.60 / qpmin=0 / qpmax=69 / qpstep=4 / cplxblur=20.0 / qblur=0.5 / vbv_maxrate=50000 / vbv_bufsize=62500 / nal_hrd=none / ip_ratio=1.40 / pb_ratio=1.30 / aq=1:0.80
Language : English
Default : Yes
Forced : Yes
_STATISTICS_WRITING_APP : mkvmerge v7.1.0 ('Good Love') 64bit built on Jul 27 2014 13:06:55
_STATISTICS_WRITING_DATE_UT : 2014-12-19 17:08:06
_STATISTICS_TAGS : BPS DURATION NUMBER_OF_FRAMES NUMBER_OF_BYTES
DURATION : 01:42:29.880000000
NUMBER_OF_FRAMES : 153747
NUMBER_OF_BYTES : 3406940933

Audio #1
ID : 3
Format : AC-3
Format/Info : Audio Coding 3
Mode extension : CM (complete main)
Format settings, Endianness : Big
Codec ID : A_AC3
Duration : 1h 42mn
Bit rate mode : Constant
Bit rate : 192 Kbps
Channel(s) : 2 channels
Channel positions : Front: L R
Sampling rate : 48.0 KHz
Bit depth : 16 bits
Compression mode : Lossy
Stream size : 141 MiB (4%)
Default : Yes
Forced : Yes

Audio #2
ID : 4
Format : AC-3
Format/Info : Audio Coding 3
Mode extension : CM (complete main)
Format settings, Endianness : Big
Codec ID : A_AC3
Duration : 1h 42mn
Bit rate mode : Constant
Bit rate : 448 Kbps
Channel(s) : 6 channels
Channel positions : Front: L C R, Side: L R, LFE
Sampling rate : 48.0 KHz
Bit depth : 16 bits
Compression mode : Lossy
Stream size : 328 MiB (9%)
Title : 5.1 448 kbps (from DVD R5)
Language : English
Default : No
Forced : No

Text
ID : 2
Format : UTF-8
Codec ID : S_TEXT/UTF8
Codec ID/Info : UTF-8 Plain Text
Language : English
Default : No
Forced : No

Menu
00:00:00.000 : en:1. The First Move
00:08:32.280 : en: 2. Ducks in a Row
00:19:02.520 : en: 3. Is This a Date?
00:29:05.840 : en: 4. He Dumped Me
00:36:59.480 : en: 5. New Year's
00:41:56.880 : en: 6. Morning After
00:47:13.200 : en: 7. On the Doorstep
00:57:29.120 : en: 8. Heading North
01:08:31.280 : en: 9. Sales Pitch
01:17:10.000 : en:10. Six Years Too Late
01:26:50.000 : en:11. Where's Oliver
01:35:47.400 : en:12. End Credits
Скріншоти







Джерело: &
Особиста оцінка: 8 - мені сподобалося

За запис звуку з ТБ подяка пану nick_89

Більше, ніж кохання / A Lot Like Love (2005) 720p Ukr/Eng | Sub Eng


Більше, ніж кохання / A Lot Like Love (2005) 720p Ukr/Eng | Sub Eng


 Трекер:    Зареєстрований   

Завантажити / скачати фільм українською



відео для новачків



 Зареєстрований:   2014-12-19 19:28
 Розмір:   4.09 GB 
 Оцінка фільму:   10/10 (Голосів: 3)
   
Інші релізи
igor911 
Відео Гуртом
Відео Гуртом


З нами з: 18.01.08
Востаннє: 10.12.16
Повідомлень: 5209

2014-12-19 20:34  
А оригінальна доріжка окремо навіщо?
Ваш часовий пояс: GMT + 2 Години

Нова тема   Відповісти