Завантажити та скачати торренти українською


Праведник / The Equalizer (2014) Blu-ray CEE Multi | Sub Multi

Нові коментарі

Нова тема   Відповісти
Автор Повідомлення
smak2001 
VIP


З нами з: 06.09.09
Востаннє: 06.12.16
Повідомлень: 457

2014-12-19 11:25  
Праведник / The Equalizer (2014) Blu-ray CEE Multi | Sub Multi

Праведник / The Equalizer (2014) Blu-ray CEE Multi | Sub Multi


Жанр: екшн, кримінальний, трилер
Країна: США



Кінокомпанія: Columbia Pictures, LStar Capital, Village Roadshow Pictures
Режисер: Антуан Фукуа / Antoine Fuqua
Актори: Дензел Вашинґтон / Denzel Washington, Мартон Чокаш / Marton Csokas, Хлоя Ґрейс Морец / Chloë Grace Moretz, Девід Гарбор / David Harbour, Гейлі Беннет / Haley Bennett, Білл Пуллман / Bill Pullman, Меліса Лео / Melissa Leo та інші

Сюжет:
Заступившись за ледь знайому дівчину, герой змушений вступити в нерівну сутичку з бандитами і перевертнями в погонах з ЦРУ. Фінал у цій війні був би плачевно передбачуваний, не будь він відставним спецназівцем, який тільки почав життя з чистого аркуша.


Тривалість: 02:12:31
Якість: Blu-ray CEE
Відео:
кодек:
розмір кадру: 1920х1080
бітрейт: 22852 кб/с

Аудіо # 1:
мова: англійська
переклад: оригінал
кодек: -HD 7.1
бітрейт: 2713 кб/с

Аудіо # 2:
мова: англійська
переклад: оригінал
кодек: 5.1
бітрейт: 640 кб/с

Аудіо # 3-8:
мова: чеська, угорська, польська, російська, турецька, українська
переклад: дубляж
кодек: 5.1
бітрейт: 640 кб/с

Джерело озвучення:


Субтитри:
мова: Англійська, Арабська, Болгарська, Хорватська, Чеська, Естонська, Грецька, Іврит, Гінді, Угорська, Ісландська, польська, португальська, румунська, російська, сербська, словацька, словенська, Турецька
тип: пререндерні
формат: *.pgs
DISC INFO:


Disc Title: THE_EQUALIZER_HDCLUB
Disc Size: 43 248 186 137 bytes
Protection: AACS
BD-Java: Yes
BDInfo: 0.5.8

PLAYLIST REPORT:

Name: 00002.MPLS
Length: 2:12:02.914 (h:m:s.ms)
Size: 32 136 118 272 bytes
Total Bitrate: 32,45 Mbps

VIDEO:

Codec Bitrate Description
----- ------- -----------
MPEG-4 AVC Video 22852 kbps 1080p / 23,976 fps / 16:9 / High Profile 4.1

AUDIO:

Codec Language Bitrate Description
----- -------- ------- -----------
-HD Master Audio English 2713 kbps 7.1 / 48 kHz / 2713 kbps / 16-bit ( Core: 5.1 / 48 kHz / 1509 kbps / 16-bit)
Dolby Digital Audio English 640 kbps 5.1 / 48 kHz / 640 kbps
Dolby Digital Audio Czech 640 kbps 5.1 / 48 kHz / 640 kbps
Dolby Digital Audio Hungarian 640 kbps 5.1 / 48 kHz / 640 kbps
Dolby Digital Audio Polish 640 kbps 5.1 / 48 kHz / 640 kbps
Dolby Digital Audio Russian 640 kbps 5.1 / 48 kHz / 640 kbps
Dolby Digital Audio Turkish 640 kbps 5.1 / 48 kHz / 640 kbps
Dolby Digital Audio Ukrainian 640 kbps 5.1 / 48 kHz / 640 kbps

SUBTITLES:

Codec Language Bitrate Description
----- -------- ------- -----------
Presentation Graphics English 21,250 kbps
Presentation Graphics Arabic 12,367 kbps
Presentation Graphics Bulgarian 20,797 kbps
Presentation Graphics Croatian 17,650 kbps
Presentation Graphics Czech 19,347 kbps
Presentation Graphics Estonian 17,452 kbps
Presentation Graphics Greek 21,927 kbps
Presentation Graphics Hebrew 16,740 kbps
Presentation Graphics Hindi 18,144 kbps
Presentation Graphics Hungarian 20,172 kbps
Presentation Graphics Icelandic 20,556 kbps
Presentation Graphics Polish 19,081 kbps
Presentation Graphics Portuguese 22,318 kbps
Presentation Graphics Romanian 20,024 kbps
Presentation Graphics Russian 17,607 kbps
Presentation Graphics Serbian 18,219 kbps
Presentation Graphics Slovak 17,510 kbps
Presentation Graphics Slovenian 17,061 kbps
Presentation Graphics Turkish 21,065 kbps
Presentation Graphics Ukrainian 0,001 kbps

FILES:

Name Time In Length Size Total Bitrate
---- ------- ------ ---- -------------
00002.M2TS 0:00:00.000 0:01:25.919 342 386 688 31 880
00003.M2TS 0:01:25.919 0:01:54.823 462 925 824 32 253
00004.M2TS 0:03:20.742 0:10:57.573 2 661 120 000 32 375
00005.M2TS 0:14:18.315 0:12:53.564 3 128 272 896 32 352
00006.M2TS 0:27:11.880 0:22:28.513 5 483 894 784 32 533
00007.M2TS 0:49:40.394 0:07:38.708 1 859 340 288 32 427
00008.M2TS 0:57:19.102 0:08:13.159 1 998 624 768 32 422
00009.M2TS 1:05:32.261 0:26:27.127 6 427 441 152 32 398
00010.M2TS 1:31:59.388 0:13:15.169 3 228 801 024 32 484
00011.M2TS 1:45:14.558 0:26:48.356 6 543 310 848 32 547
Скріншоти



Додатковий матеріал
"Хоум березня": розбираючись із справами по одному цвяху за раз (HD);
- Діти ночі (HD);
- Відплата з Дензелом Вашингтоном і Антуаном Фукуа (HD);
- Дензел Вашингтон: інший вид субергероя (HD);
- "Праведник" очима Антуана Фукуа (HD);
- Всередині "Праведника" (HD);
- Людина-армія: тренування і бої (HD);
- фотогалерея
Джерело:


Золотий реліз (завантажене не впливає на рейтинг)
 Трекер:    Зареєстрований   

Завантажити / скачати фільм українською



відео для новачків



 Зареєстрований:   2014-12-19 11:25
 Розмір:   40.28 GB 
 Оцінка фільму:   9.1/10 (Голосів: 14)
   
Інші релізи
   Праведник / The Equalizer (2014) [640 x 270] DmitryA  1 / 0   1.11 GB   2015-08-06 15:59 
   Праведник / The Equalizer (2014) 720p-mini Drool  4 / 0   2.74 GB   2015-07-29 09:30 
   Праведник / The Equalizer (2014) patriot2305  19 / 1   1.46 GB   2014-12-18 19:37 
   Праведник / The Equalizer (2014) 1080p Ukr/Eng | Sub Eng 11FrYkT  3 / 0   10.1 GB   2014-12-18 18:10 
   Праведник / The Equalizer (2014) AVC patriot2305  5 / 0   2.7 GB   2014-12-18 17:45 
   Праведник / The Equalizer (2014) 720p Ukr/Eng | Sub Eng 11FrYkT  11 / 0   5.12 GB   2014-12-18 17:29 
   Праведник / The Equalizer (2014) Gelios  3 / 0   2.18 GB   2014-12-18 16:13 
lcds 
Свій


З нами з: 08.07.13
Востаннє: 02.12.16
Повідомлень: 111

2014-12-19 21:21  
Решпект, пане smak2001!
Anubys 
VIP


З нами з: 09.11.09
Востаннє: 07.12.16
Повідомлень: 278

2014-12-19 23:55  
Дуже вдячний. Треба глянути.
ЙОЖЕГ 
Новенький


З нами з: 19.04.10
Востаннє: 06.12.16
Повідомлень: 9

2015-03-31 20:26  
Фільм сподобався! За якісну картинку окреме дякую! Happy
smak2001 
VIP


З нами з: 06.09.09
Востаннє: 06.12.16
Повідомлень: 457

2015-03-31 23:19  
ЙОЖЕГ написано:
окреме дякую

А ще можна подякувати, клацнувши кнопку "Дякую!" під торентом.
Дрібниця, та мені приємно Happy

valera.plevako 
Новенький


З нами з: 09.01.14
Востаннє: 07.12.16
Повідомлень: 10

2016-11-06 18:28  
скачав, є папкаю із десятками підпапок , нерозбираюсь,незнаю як відкрити,допоможіть дякую)
igor911 
Відео Гуртом
Відео Гуртом


З нами з: 18.01.08
Востаннє: 08.12.16
Повідомлень: 5176

2016-11-06 18:46  
valera.plevako, відкривай 00002.MPLS
valera.plevako 
Новенький


З нами з: 09.01.14
Востаннє: 07.12.16
Повідомлень: 10

2016-11-06 19:11  
не відкриає
igor911 
Відео Гуртом
Відео Гуртом


З нами з: 18.01.08
Востаннє: 08.12.16
Повідомлень: 5176

2016-11-06 19:14  
тоді гугли "як відкрити BDMV"
Drool 
VIP


З нами з: 17.04.10
Востаннє: 07.12.16
Повідомлень: 1266

2016-11-06 22:50  
valera.plevako написано:
скачав, є папкаю із десятками підпапок , нерозбираюсь,незнаю як відкрити,допоможіть дякую)
Навіщо качати те, що не знаєш як і чим відкривати? Може краще скачати ? Там один файл, все зрозуміло і нічого незвичайного.
kryk-v.ya. 
Новенький


З нами з: 14.02.14
Востаннє: 06.12.16
Повідомлень: 4

2016-11-10 19:19  
valera.plevako
в мене тюнер сам знаходить відповідний файл...і кіно є...

побільше б таких форматів...

Ваш часовий пояс: GMT + 2 Години

Нова тема   Відповісти