Завантажити та скачати торренти українською


Діти Хуан Ші / The Children of Huang Shi (2008) 1080p Ukr/Eng | Sub Eng

Нові коментарі

Нова тема   Відповісти
Автор Повідомлення
Anonymous 







2014-12-19 02:07  
Діти Хуан Ші / The Children of Huang Shi (2008) 1080p Ukr/Eng | Sub Eng



Жанр: драма, військовий, історичний
Країна: Австралія, Китай, Німеччина, США



Кінокомпанія: Australian Film Finance Corporation (AFFC), Ming Productions, Bluewater Pictures, Zero Fiction Film та інші
Режисер: Роджер Споттісвуд / Roger Spottiswoode
Актори: Джонатан Різ Меєрс / Jonathan Rhys Meyers, Рада Мітчел / Radha Mitchell, Юн-Фат Чоу / Yun-Fat Chow, Мішелль Йео / Michelle Yeoh, Гуанг Лі / Guang Li, Лін Джи / Lin Ji, Метью Волкер / Matthew Walker та інші

Сюжет:
Молодий англійський журналіст Джордж Хогг та австралійська медсестра Лі Пірсон повинні врятувати від смерті групу осиротілих дітей під час японського вторгнення до Китаю у 1937 році. Завдання головних героїв - переправити 60 дітлахів через гори Лю Пан Шан у безпечну місцевість.


Рейтинг MPAA: R - особам до 17 років обов'язкова присутність батьків або дорослого опікуна
Вікова категорія: 16+

Тривалість: 2:04:49
Якість: 1080p
Відео:
кодек:
розмір кадру: 1920x816
бітрейт: 13477 кбіт/с

Аудіо # 1: Так Треба Продакшн на замовлення Aurora Distribution, запис з телеканалу «А/ТВК» м.Харків, по НЛО.ТБ була ідентична озвучка.
мова: українська
переклад: багатоголосий закадровий
ролі озвучили: Джонатан Різ Маєрс — Дмитро Терещук?, Юнь Фат-Чоу — Юрій Гребельник, Інна Капінос? і ще один жіночий голос
кодек: 5.1
бітрейт: 384 кб/с

Аудіо # 2:
мова: англійська
переклад: оригінал
кодек: 5.1
бітрейт: 640 кб/с

Субтитри:
мова: англійська (повні, форсовані на китайську)
тип: програмні (м'які)
формат: *.ass
MediaInfo
Код:
General
Unique ID                   : 240029661357479234887691544020155864581 (0xB49407FF037F78459FF5BD7ED4AB9605)
Complete name               : The Children of Huang Shi (2008) [Ukr,Eng sub.Eng] 1080p [Hurtom & HDClub].mkv
Format                      : Matroska
Format version              : Version 4 / Version 2
File size                   : 12.6 GiB
Duration                    : 2h 4mn
Overall bit rate            : 14.5 Mbps
Movie name                  : Діти Хуан Ші / The Children of Huang Shi (2008) [Ukr,Eng sub.Eng] 1080p [Hurtom & HDClub]
Encoded date                : UTC 2014-12-18 16:37:22
Writing application         : mkvmerge v7.4.0 ('Circles') 64bit built on Dec 12 2014 12:19:56
Writing library             : libebml v1.3.0 + libmatroska v1.4.1
Attachements                : CronosPro-SemiboldIt.ttf / CronosPro-Semibold.ttf / CronosPro-Bold.ttf
DURATION                    : 02:04:41.984000000
NUMBER_OF_FRAMES            : 233812
NUMBER_OF_BYTES             : 359135232
_STATISTICS_WRITING_APP     : mkvmerge v7.4.0 ('Circles') 64bit built on Dec 12 2014 12:19:56
_STATISTICS_WRITING_DATE_UT : 2014-12-18 16:37:22
_STATISTICS_TAGS            : BPS DURATION NUMBER_OF_FRAMES NUMBER_OF_BYTES

Video
ID                          : 1
Format                      : AVC
Format/Info                 : Advanced Video Codec
Format profile              : [email protected]
Format settings, CABAC      : Yes
Format settings, ReFrames   : 4 frames
Codec ID                    : V_MPEG4/ISO/AVC
Duration                    : 2h 4mn
Bit rate                    : 13.5 Mbps
Width                       : 1 920 pixels
Height                      : 816 pixels
Display aspect ratio        : 2.35:1
Frame rate mode             : Constant
Frame rate                  : 24.000 fps
Color space                 : YUV
Chroma subsampling          : 4:2:0
Bit depth                   : 8 bits
Scan type                   : Progressive
Bits/(Pixel*Frame)          : 0.358
Stream size                 : 11.5 GiB (91%)
Title                       : Діти Хуан Ші / The Children of Huang Shi / Дети Хуанг Ши (2008) 1080p [ESiR]
Writing library             : core 66 r1112M f43e22a
Encoding settings           : cabac=1 / ref=4 / deblock=1:-3:-3 / analyse=0x3:0x113 / me=umh / subme=9 / psy_rd=0.8:0.0 / mixed_ref=1 / me_range=24 / chroma_me=1 / trellis=2 / 8x8dct=1 / cqm=0 / deadzone=21,11 / chroma_qp_offset=-2 / threads=6 / nr=0 / decimate=0 / mbaff=0 / bframes=6 / b_pyramid=1 / b_adapt=2 / b_bias=0 / direct=1 / wpredb=1 / keyint=250 / keyint_min=25 / scenecut=40(pre) / rc=2pass / bitrate=13477 / ratetol=1.0 / qcomp=0.60 / qpmin=10 / qpmax=51 / qpstep=4 / cplxblur=20.0 / qblur=0.5 / vbv_maxrate=50000 / vbv_bufsize=50000 / ip_ratio=1.40 / pb_ratio=1.30 / aq=1:0.80
Language                    : English
Default                     : Yes
Forced                      : No
DURATION                    : 02:04:49.947000000
NUMBER_OF_FRAMES            : 179759
NUMBER_OF_BYTES             : 12616208306
_STATISTICS_WRITING_APP     : mkvmerge v7.4.0 ('Circles') 64bit built on Dec 12 2014 12:19:56
_STATISTICS_WRITING_DATE_UT : 2014-12-18 16:37:22
_STATISTICS_TAGS            : BPS DURATION NUMBER_OF_FRAMES NUMBER_OF_BYTES

Audio #1
ID                          : 2
Format                      : AC-3
Format/Info                 : Audio Coding 3
Mode extension              : CM (complete main)
Format settings, Endianness : Big
Codec ID                    : A_AC3
Duration                    : 2h 4mn
Bit rate mode               : Constant
Bit rate                    : 384 Kbps
Channel(s)                  : 6 channels
Channel positions           : Front: L C R, Side: L R, LFE
Sampling rate               : 48.0 KHz
Bit depth                   : 16 bits
Compression mode            : Lossy
Stream size                 : 343 MiB (3%)
Title                       : MVO [TTP-Aurora Distribution] 5.1 384 kbps [Hurtom-wrongfunction]
Language                    : Ukrainian
Default                     : Yes
Forced                      : No

Audio #2
ID                          : 3
Format                      : AC-3
Format/Info                 : Audio Coding 3
Mode extension              : CM (complete main)
Format settings, Endianness : Big
Codec ID                    : A_AC3
Duration                    : 2h 4mn
Bit rate mode               : Constant
Bit rate                    : 640 Kbps
Channel(s)                  : 6 channels
Channel positions           : Front: L C R, Side: L R, LFE
Sampling rate               : 48.0 KHz
Bit depth                   : 16 bits
Compression mode            : Lossy
Stream size                 : 571 MiB (4%)
Title                       : Original 5.1 640 Kbps
Language                    : English
Default                     : No
Forced                      : No

Text #1
ID                          : 4
Format                      : ASS
Codec ID                    : S_TEXT/ASS
Codec ID/Info               : Advanced Sub Station Alpha
Compression mode            : Lossless
Title                       : Eng full
Language                    : English
Default                     : No
Forced                      : No

Text #2
ID                          : 5
Format                      : ASS
Codec ID                    : S_TEXT/ASS
Codec ID/Info               : Advanced Sub Station Alpha
Compression mode            : Lossless
Title                       : english for foreign parts
Language                    : English
Default                     : No
Forced                      : No




Джерела та подяки: &
ріп відео, оригінальні звук та субтитри - ESiR (HDbits), Sunny (HDClub); українська доріжка - wrongfunction - запис з ТБ та зведення; українізований постер - Ermolenko; фільмографії акторів та інформація про озвучення - Віктор, ninenine (всі - Гуртом).


ЗАЛИШАЙТЕСЬ ЯКОМОГА ДОВШЕ НА РОЗДАЧІ!

СКАЧАВ САМ - ДАЙ СКАЧАТИ ІНШИМ


 Трекер:    Зареєстрований   

Завантажити / скачати фільм українською



відео для новачків



 Зареєстрований:   2014-12-19 02:07
 Розмір:   12.64 GB 
 Оцінка фільму:   3.1/10 (Голосів: 13)
   
Інші релізи
Anonymous 







2014-12-19 02:20  
Цікаві, але не веселі аналогії мимоволі простежуються між подіями у цьому фільмі та теперішньою російсько-українською війною.

Ось реліз в 720p: http://toloka.to/t61680

Ваш часовий пояс: GMT + 2 Години

Нова тема   Відповісти