Завантажити та скачати торренти українською


Проект X / Project X (2012) 1080p 2xUkr/Eng | Sub Ukr/Eng

Нові коментарі

Нова тема   Відповісти
Автор Повідомлення
tarasyk98 
Поважний учасник


З нами з: 19.12.13
Востаннє: 03.12.16
Повідомлень: 201

2014-12-18 22:44  
Проект X / Project X (2012) 1080p 2xUkr/Eng | Sub Ukr/Eng

Проект X / Project X (2012) 1080p 2xUkr/Eng | Sub Ukr/Eng


Жанр: комедія
Країна: США



Кінокомпанія: Green Hat Films, Silver Pictures
Режисер: Ніна Нурізаде
Актори: Томас Манн, Олівер Купер, Джонатан Деніел Браун, Дакс Флейм, Кірбі Блісс Блантон

Сюжет:
У центрі історії троє однокласників, які вирішили влаштувати круту вечірку і прославитися на всю округу. Звісно, утримати події під контролем у них не вийшло і тусовка розростається настільки, що зупинити її вже нікому не під силу... Буде круто!


Тривалість: 01:27:53
Якість:
Відео:
кодек:
розмір кадру: 1920х1080
бітрейт: 13200 кб/с

Аудіо # 1:
мова: українська
переклад: професійний дубльований
кодек: 5.1
бітрейт: 448 кб/с

Аудіо # 2:
мова: українська
переклад: багатоголосий закадровий
кодек: 2.0
бітрейт: 192 кб/с

Аудіо # 3:
мова: англійська
переклад: оригінал
кодек: 5.1
бітрейт: 1509 кб/с

Субтитри:
мова: українська
тип: програмні (м'які)
формат: *.srt

Субтитри:
мова: англійська
тип: програмні (м'які)
формат: *.srt
MediaInfo
General
Unique ID : 171569127648128679603031422319596673367 (0x8113031582FFAD76A71D948728801957)
Complete name : D:\Відео\Project X (2012) 1080p [Hurtom].mkv
Format : Matroska
Format version : Version 4 / Version 2
File size : 9.42 GiB
Duration : 1h 27mn
Overall bit rate : 15.3 Mbps
Movie name : Проект X: Дорвались
Encoded date : UTC 2014-12-18 12:22:10
Writing application : mkvmerge v7.1.0 ('Good Love') 64bit built on Jul 27 2014 13:06:55
Writing library : libebml v1.3.0 + libmatroska v1.4.1
_STATISTICS_WRITING_APP : mkvmerge v7.1.0 ('Good Love') 64bit built on Jul 27 2014 13:06:55
_STATISTICS_WRITING_DATE_UT : 2014-12-18 12:22:10
_STATISTICS_TAGS : BPS DURATION NUMBER_OF_FRAMES NUMBER_OF_BYTES
DURATION : 01:27:21.486000000
NUMBER_OF_FRAMES : 1377
NUMBER_OF_BYTES : 55922

Video
ID : 1
Format : AVC
Format/Info : Advanced Video Codec
Format profile : [email protected]
Format settings, CABAC : Yes
Format settings, ReFrames : 4 frames
Codec ID : V_MPEG4/ISO/AVC
Duration : 1h 27mn
Bit rate : 13.2 Mbps
Width : 1 920 pixels
Height : 1 080 pixels
Display aspect ratio : 16:9
Frame rate mode : Constant
Frame rate : 23.976 fps
Color space : YUV
Chroma subsampling : 4:2:0
Bit depth : 8 bits
Scan type : Progressive
Bits/(Pixel*Frame) : 0.266
Stream size : 7.91 GiB (84%)
Title : Проект X: Дорвались
Writing library : core 124 r2197 69a0443
Encoding settings : cabac=1 / ref=4 / deblock=1:-3:-3 / analyse=0x3:0x113 / me=umh / subme=11 / psy=1 / psy_rd=1.00:0.00 / mixed_ref=1 / me_range=32 / chroma_me=1 / trellis=2 / 8x8dct=1 / cqm=0 / deadzone=21,11 / fast_pskip=0 / chroma_qp_offset=-2 / threads=6 / sliced_threads=0 / nr=0 / decimate=1 / interlaced=0 / bluray_compat=0 / constrained_intra=0 / bframes=7 / b_pyramid=2 / b_adapt=2 / b_bias=0 / direct=3 / weightb=1 / open_gop=0 / weightp=2 / keyint=250 / keyint_min=24 / scenecut=40 / intra_refresh=0 / rc_lookahead=40 / rc=2pass / mbtree=0 / bitrate=13205 / ratetol=1.0 / qcomp=0.60 / qpmin=0 / qpmax=69 / qpstep=4 / cplxblur=20.0 / qblur=0.5 / vbv_maxrate=50000 / vbv_bufsize=50000 / nal_hrd=none / ip_ratio=1.40 / pb_ratio=1.30 / aq=1:1.00
Language : English
Default : Yes
Forced : Yes
DURATION : 01:27:52.818000000
NUMBER_OF_FRAMES : 126421
NUMBER_OF_BYTES : 8694503500
_STATISTICS_WRITING_APP : mkvmerge v7.1.0 ('Good Love') 64bit built on Jul 27 2014 13:06:55
_STATISTICS_WRITING_DATE_UT : 2014-12-18 12:22:10
_STATISTICS_TAGS : BPS DURATION NUMBER_OF_FRAMES NUMBER_OF_BYTES

Audio #1
ID : 2
Format : AC-3
Format/Info : Audio Coding 3
Mode extension : CM (complete main)
Format settings, Endianness : Big
Codec ID : A_AC3
Duration : 1h 27mn
Bit rate mode : Constant
Bit rate : 448 Kbps
Channel(s) : 6 channels
Channel positions : Front: L C R, Side: L R, LFE
Sampling rate : 48.0 KHz
Bit depth : 16 bits
Compression mode : Lossy
Stream size : 282 MiB (3%)
Title : Дубляж
Language : Ukrainian
Default : No
Forced : Yes

Audio #2
ID : 5
Format : AC-3
Format/Info : Audio Coding 3
Mode extension : CM (complete main)
Format settings, Endianness : Big
Codec ID : A_AC3
Duration : 1h 27mn
Bit rate mode : Constant
Bit rate : 192 Kbps
Channel(s) : 2 channels
Channel positions : Front: L R
Sampling rate : 48.0 KHz
Bit depth : 16 bits
Compression mode : Lossy
Stream size : 121 MiB (1%)
Title : Ukrainian (New Channel)
Default : No
Forced : No

Audio #3
ID : 6
Format :
Format/Info : Digital Theater Systems
Mode : 16
Format settings, Endianness : Big
Codec ID : A_DTS
Duration : 1h 27mn
Bit rate mode : Constant
Bit rate : 1 509 Kbps
Channel(s) : 6 channels
Channel positions : Front: L C R, Side: L R, LFE
Sampling rate : 48.0 KHz
Bit depth : 16 bits
Compression mode : Lossy
Stream size : 949 MiB (10%)
Title :
Language : English
Default : No
Forced : No

Text #1
ID : 3
Format : UTF-8
Codec ID : S_TEXT/UTF8
Codec ID/Info : UTF-8 Plain Text
Language : Ukrainian
Default : No
Forced : No

Text #2
ID : 4
Format : UTF-8
Codec ID : S_TEXT/UTF8
Codec ID/Info : UTF-8 Plain Text
Title : SDH
Language : English
Default : No
Forced : No

Menu
00:00:00.000 : en:00:00:00.000
00:10:34.425 : en:00:10:34.425
00:19:53.776 : en:00:19:53.776
00:30:14.062 : en:00:30:14.062
00:40:10.950 : en:00:40:10.950
00:51:16.240 : en:00:51:16.240
01:00:56.403 : en:01:00:56.403
01:11:22.320 : en:01:11:22.320
01:19:29.765 : en:01:19:29.765
Скріншоти
Джерело: &
Особиста оцінка: 10 - без зайвих вагань рекомендую всім!

Аудіо #1 Skiff
Запис з ТБ bambulla та Sando7
Синхронізація Аудіо #2 voin747


 Трекер:    Зареєстрований   

Завантажити / скачати фільм українською



відео для новачків



 Зареєстрований:   2014-12-18 22:44
 Розмір:   9.42 GB 
 Оцінка фільму:   7.8/10 (Голосів: 17)
   
Інші релізи
Fayne Misto 
Новенький


З нами з: 24.12.13
Востаннє: 23.11.16
Повідомлень: 4

2014-12-20 16:22  
Переглянув вчора фільм. Можливо підліткам буде і весело, і цікаво, а мені не сподобалось.
hodan.e.1994 
Новенький


З нами з: 11.06.12
Востаннє: 01.12.16
Повідомлень: 7

2015-09-22 09:48  
поставте на роздачу!
igor911 
Відео Гуртом
Відео Гуртом


З нами з: 18.01.08
Востаннє: 04.12.16
Повідомлень: 5127

2015-09-22 10:17  
hodan.e.1994, вже три тижні нікого не було на роздічі, можливо, реліз вже "мертвий". Але майже всі наші релізи перезаливаються на ex.ua, тому можеш знайти його там. І навіть стати на роздачу тут, щоб хоч якось підняти рейтинг з ганебного нуля.
Avsel 
Свій


З нами з: 30.04.08
Востаннє: 18.11.16
Повідомлень: 57

2015-09-27 17:21  
В мене рейтинг не такий поганий, але по рекомендації вирішив стати на роздачу. Все таки не гарно, коли тут "мертвий" реліз.
famous37 
Відео Гуртом - фільмокрай
Відео Гуртом - фільмокрай


З нами з: 16.11.08
Востаннє: 04.12.16
Повідомлень: 541

2016-01-27 22:14  
Крутий фільм!
Ваш часовий пояс: GMT + 2 Години

Нова тема   Відповісти