Завантажити та скачати торренти українською


Діти без нагляду / Unaccompanied Minors (2006) Ukr/Eng | Sub Ukr/Eng

Нові коментарі

Нова тема   Відповісти
Автор Повідомлення
Anonymous 







2014-12-18 00:17  
Діти без нагляду / Unaccompanied Minors (2006) Ukr/Eng | Sub Ukr/Eng



Жанр: комедія, пригодницький, сімейний
Країна: США



Кінокомпанія: Warner Bros., Village Roadshow Pictures, Donners' Company
Режисер: Пол Фіг / Paul Feig
Актори: Льюїс Блек / Lewis Black, Вілмер Вальдеррама / Wilmer Valderrama, Тайлер Джеймс Вільямс / Tyler James Williams, Діллан Крістофер / Dyllan Christopher, Бретт Келлі / Brett Kelly, Джина Мантенья / Gia Mantegna, Квінн Шепард / Quinn Shephard, Роб Кордрі / Rob Corddry, Домінік Салдана / Dominique Saldaña та інші

Сюжет:
Напередодні Різдва п'ятьох дітей, що подорожують без батьків, сніговий буревій заблокував в аеропорту. Фільм розповідає про те, як ця юна компанія спробує перехитрити розлючених охоронців аеропорту і знову зустрітися з рідними.

За допомогою "тимчасово позичених" кредитних карток і бортпровідника, який неохоче їм допомагає, діти доведуть, що головне не те, де ти зустрічаєш Різдво, а те, з ким ти його зустрічаєш ...


Рейтинг MPAA: PG - рекомендується присутність батьків
Вікова категорія: 12+

Тривалість: 01:29:48
Якість:
Відео:
кодек: 65
розмір кадру: 720 x 304
бітрейт: 1928 кбіт/с

Аудіо # 1:
мова: українська
переклад: багатоголосий закадровий
кодек: 2.0
бітрейт: 192 кбіт/с

Аудіо # 2:
мова: англійська
переклад: оригінал
кодек: 5.1
бітрейт: 384 кбіт/с

Субтитри:
мова: українська (завантажити), англійська (завантажити)
тип: програмні (м'які)
формат: *.srt
MediaInfo
Код:
General
Complete name               : Unaccompanied Minors (2006) [Ukr,Eng] [Hurtom].avi
Format                      : AVI
Format/Info                 : Audio Video Interleave
File size                   : 1.58 GiB
Duration                    : 1h 29mn
Overall bit rate            : 2 518 Kbps
Movie name                  : Діти без нагляду / Unaccompanied Minors / Дети без присмотра (2006) [Ukr,Eng]
Director                    : igor911, SILVER37RUS
Genre                       : комедія, пригодницький, сімейний
Recorded date               : 17.12.2014
Writing application         : VirtualDubModRus 1.5.10.2 (build 2540/release) VirtualDubMod build 2540/release
Original source form/Name   : фільм
Copyright                   : Hurtom & Rutracker

Video
ID                          : 0
Format                      : MPEG-4 Visual
Format profile              : Advanced [email protected]
Format settings, BVOP       : 1
Format settings, QPel       : No
Format settings, GMC        : No warppoints
Format settings, Matrix     : Custom
Codec ID                    :
Codec ID/Hint               :
Duration                    : 1h 29mn
Bit rate                    : 1 928 Kbps
Width                       : 720 pixels
Height                      : 304 pixels
Display aspect ratio        : 2.35:1
Frame rate                  : 23.976 fps
Color space                 : YUV
Chroma subsampling          : 4:2:0
Bit depth                   : 8 bits
Scan type                   : Progressive
Compression mode            : Lossy
Bits/(Pixel*Frame)          : 0.367
Stream size                 : 1.21 GiB (77%)
Writing library             : 65

Audio #1
ID                          : 1
Format                      : AC-3
Format/Info                 : Audio Coding 3
Mode extension              : CM (complete main)
Format settings, Endianness : Big
Codec ID                    : 2000
Duration                    : 1h 29mn
Bit rate mode               : Constant
Bit rate                    : 192 Kbps
Channel(s)                  : 2 channels
Channel positions           : Front: L R
Sampling rate               : 48.0 KHz
Bit depth                   : 16 bits
Compression mode            : Lossy
Stream size                 : 123 MiB (8%)
Alignment                   : Split accross interleaves
Interleave, duration        : 42 ms (1.00 video frame)
Interleave, preload duratio : 500 ms
Language                    : Ukrainian

Audio #2
ID                          : 2
Format                      : AC-3
Format/Info                 : Audio Coding 3
Mode extension              : CM (complete main)
Format settings, Endianness : Big
Codec ID                    : 2000
Duration                    : 1h 29mn
Bit rate mode               : Constant
Bit rate                    : 384 Kbps
Channel(s)                  : 6 channels
Channel positions           : Front: L C R, Side: L R, LFE
Sampling rate               : 48.0 KHz
Bit depth                   : 16 bits
Compression mode            : Lossy
Stream size                 : 247 MiB (15%)
Alignment                   : Split accross interleaves
Interleave, duration        : 42 ms (1.00 video frame)
Interleave, preload duratio : 500 ms




Джерела та подяки: &
ріп відео - SILVER37RUS (рутрекер), вихідний 720p придбаний за кошти користувачів HDClub; оригінальний звук, українські та оригінальні субтитри - igor911 - витягнення з DVD R5, розпізнавання, обробка, синхронізація; українська доріжка - Bohdan237 - зведення, olgaya - запис з ТБ; українізований постер - Bohdan237 (всі - Гуртом).

Особиста оцінка: 8 - рекомендую школярам та їх батькам


ЗАЛИШАЙТЕСЬ ЯКОМОГА ДОВШЕ НА РОЗДАЧІ!

СКАЧАВ САМ - ДАЙ СКАЧАТИ ІНШИМ


 Трекер:    Зареєстрований   

Завантажити / скачати фільм українською



відео для новачків



 Зареєстрований:   2014-12-18 00:17
 Розмір:   1.58 GB 
 Оцінка фільму:   6.1/10 (Голосів: 23)
   
Інші релізи
kol0984 
Частий відвідувач


З нами з: 15.01.14
Востаннє: 03.12.16
Повідомлень: 35

2014-12-18 11:58  
О, товстун, з "Поганого санти"!!))
Ваш часовий пояс: GMT + 2 Години

Нова тема   Відповісти