Завантажити та скачати торренти українською


Рок-н-рольщик / RocknRolla (2008) 720p Ukr/Eng | Sub Ukr/Eng

Нові коментарі

Нова тема   Відповісти
Автор Повідомлення
Anonymous 







2014-12-17 21:11  
Рок-н-рольщик / RocknRolla (2008) 720p Ukr/Eng | Sub Ukr/Eng



Альтернативний постер



Жанр: бойовик, трилер, кримінальний
Країна: США, Велика Британія



Кінокомпанія: Warner Bros. Pictures, Dark Castle Entertainment, Toff Guy Films, StudioCanal
Режисер: Ґай Річі / Guy Ritchie
Актори: Джерард Батлер / Gerard Butler, Марк Стронґ / Mark Strong, Том Гарді / Tom Hardy, Том Вілкінсон / Tom Wilkinson, Тенді Ньютон / Thandie Newton, Ідріс Ельба / Idris Elba, Карел Роден / Karel Roden, Тобі Кеббелл / Toby Kebbell, Джеремі Півень / Jeremy Piven та інші

Сюжет:
Сучасна злочинність Лондона — це не тільки наркотики. Це також нерухомість, афери і ризик — тепер це головні козирі, які можуть дозволити не тільки заробити, а й поставити під загрозу життя. Ось тільки не обов'язково підставляти саме своє.

Ви зустрінете членів "Дикої зграї" — Раз-Два, Мямля і Боба-Красеня, познайомитеся з кримінальним ватажком Ленні Коулом, його "правою рукою" Арчі, названим сином мафіозі, зіркою рок-н-ролу Джонні Фунтом, з російським мільярдером Юрієм Омовічем і його командою. Усі вони причетні до справи, ціна якої - їх життя і 14 мільйонів фунтів стерлінгів.
На героїв чекають божевільні пригоди, пограбування, афери, погоні та неймовірні відкриття. І все це - для того, щоб відповісти на кілька важливих запитань: хто вкрав у російської мафії 14 мільйонів фунтів стерлінгів? Хто забрав з кабінету "хрещеного батька" Лондона безцінну картину? Хто скидає в поліцію інформацію про лондонських злочинців? І головне - хто ж такий "справжній рок-н-рольник"? І від відповідей на них залежить життя всіх героїв цієї історії про ризиковані афери.


Рейтинг MPAA: R - особам до 17 років обов'язкова присутність батьків або дорослого опікуна
Вікова категорія: 16+

Тривалість: 01:56:21
Якість: 720p [SbR]
Відео:
кодек:
розмір кадру: 1280 х 534
бітрейт: 5257 кбіт/с [crf=15]

Аудіо # 1:
мова: українська
переклад: багатоголосий закадровий - Так Треба Продакшн на замовлення ICTV
ролі озвучили: Марк Стронґ — Олег Стальчук, Джерард Батлер — Юрій Ребрик, Дмитро Терещук і один жіночий голос
кодек: 5.1
бітрейт: 384 кбіт/с

Аудіо # 2:
мова: англійська
переклад: оригінал
кодек: 5.1
бітрейт: 1509 кбіт/с

Аудіо # 3:
мова: англійська
переклад: коментарі
кодек: OGG 2.0
бітрейт: 80 кбіт/с

Субтитри #1:
мова: українська
тип: програмні (м'які)
формат: *.srt

Субтитри #2:
мова: англійська
тип: програмні (м'які)
формат: *.ass

Збережено оригінальні розділи, як на Blu-ray.
MediaInfo та log
Код:
General
Unique ID                   : 252365097812638387148247125911229413843 (0xBDDBBFF81B4EF736AC6049DCA94FB9D3)
Complete name               : RocknRolla (2008) [Ukr,Eng sub.Ukr,Eng] 720p [Hurtom & HDClub].mkv
Format                      : Matroska
Format version              : Version 4 / Version 2
File size                   : 5.89 GiB
Duration                    : 1h 54mn
Overall bit rate mode       : Variable
Overall bit rate            : 7 377 Kbps
Movie name                  : Рок-н-рольщик / RocknRolla (2008) 720p [Hurtom & HDClub]
Encoded date                : UTC 2014-12-16 13:51:35
Writing application         : mkvmerge v7.4.0 ('Circles') 64bit built on Dec 12 2014 12:19:56
Writing library             : libebml v1.3.0 + libmatroska v1.4.1
Attachements                : xlog.txt / CronosPro-Bold.ttf / CronosPro-Semibold.ttf / CronosPro-SemiboldIt.ttf
DURATION                    : 01:53:48.600000000
NUMBER_OF_FRAMES            : 1693
NUMBER_OF_BYTES             : 102109
_STATISTICS_WRITING_APP     : mkvmerge v7.4.0 ('Circles') 64bit built on Dec 12 2014 12:19:56
_STATISTICS_WRITING_DATE_UT : 2014-12-16 13:51:35
_STATISTICS_TAGS            : BPS DURATION NUMBER_OF_FRAMES NUMBER_OF_BYTES

Video
ID                          : 1
Format                      : AVC
Format/Info                 : Advanced Video Codec
Format profile              : [email protected]
Format settings, CABAC      : Yes
Format settings, ReFrames   : 12 frames
Codec ID                    : V_MPEG4/ISO/AVC
Duration                    : 1h 54mn
Bit rate                    : 5 257 Kbps
Width                       : 1 280 pixels
Height                      : 534 pixels
Display aspect ratio        : 2.40:1
Frame rate mode             : Constant
Frame rate                  : 23.976 fps
Color space                 : YUV
Chroma subsampling          : 4:2:0
Bit depth                   : 8 bits
Scan type                   : Progressive
Bits/(Pixel*Frame)          : 0.321
Stream size                 : 4.20 GiB (71%)
Title                       : Рок-н-рольщик / RocknRolla (2008) 720p [SbR]
Writing library             : core 142 r2491kMod 24e4fed
Encoding settings           : cabac=1 / ref=12 / deblock=1:-2:-2 / analyse=0x3:0x133 / me=umh / subme=11 / psy=1 / fade_compensate=0.00 / psy_rd=1.00:0.00 / mixed_ref=1 / me_range=32 / chroma_me=1 / trellis=2 / 8x8dct=1 / cqm=0 / deadzone=21,11 / fast_pskip=1 / chroma_qp_offset=-2 / threads=12 / lookahead_threads=2 / sliced_threads=0 / nr=0 / decimate=1 / interlaced=0 / bluray_compat=0 / constrained_intra=0 / fgo=0 / bframes=8 / b_pyramid=2 / b_adapt=2 / b_bias=0 / direct=1 / weightb=1 / open_gop=0 / weightp=2 / keyint=250 / keyint_min=23 / scenecut=40 / intra_refresh=0 / rc_lookahead=60 / rc=crf / mbtree=0 / crf=15.0000 / qcomp=0.70 / qpmin=0 / qpmax=69 / qpstep=4 / vbv_maxrate=62500 / vbv_bufsize=78125 / crf_max=0.0 / nal_hrd=none / filler=0 / ip_ratio=1.40 / pb_ratio=1.30 / aq=1:1.00
Language                    : English
Default                     : Yes
Forced                      : No
Color primaries             : BT.709
Transfer characteristics    : BT.709
Matrix coefficients         : BT.709
Color range                 : Limited

Audio #1
ID                          : 2
Format                      : AC-3
Format/Info                 : Audio Coding 3
Mode extension              : CM (complete main)
Format settings, Endianness : Big
Codec ID                    : A_AC3
Duration                    : 1h 54mn
Bit rate mode               : Constant
Bit rate                    : 384 Kbps
Channel(s)                  : 6 channels
Channel positions           : Front: L C R, Side: L R, LFE
Sampling rate               : 48.0 KHz
Bit depth                   : 16 bits
Compression mode            : Lossy
Stream size                 : 314 MiB (5%)
Title                       : MVO [ICTV] 5.1 384 kbps [Hurtom]
Language                    : Ukrainian
Default                     : Yes
Forced                      : No

Audio #2
ID                          : 3
Format                      :
Format/Info                 : Digital Theater Systems
Mode                        : 16
Format settings, Endianness : Big
Codec ID                    : A_DTS
Duration                    : 1h 54mn
Bit rate mode               : Constant
Bit rate                    : 1 509 Kbps
Channel(s)                  : 6 channels
Channel positions           : Front: L C R, Side: L R, LFE
Sampling rate               : 48.0 KHz
Bit depth                   : 16 bits
Compression mode            : Lossy
Stream size                 : 1.21 GiB (20%)
Title                       : Original
Language                    : English
Default                     : No
Forced                      : No

Audio #3
ID                          : 4
Format                      : Vorbis
Format settings, Floor      : 1
Codec ID                    : A_VORBIS
Duration                    : 1h 54mn
Bit rate mode               : Variable
Bit rate                    : 80.0 Kbps
Channel(s)                  : 2 channels
Sampling rate               : 48.0 KHz
Compression mode            : Lossy
Stream size                 : 65.4 MiB (1%)
Title                       : Commentary
Writing library             : libVorbis 1.1.1/1.1.2 (UTC 2005-03-04)
Language                    : English
Default                     : No
Forced                      : No

Text #1
ID                          : 5
Format                      : UTF-8
Codec ID                    : S_TEXT/UTF8
Codec ID/Info               : UTF-8 Plain Text
Language                    : Ukrainian
Default                     : No
Forced                      : No

Text #2
ID                          : 6
Format                      : ASS
Codec ID                    : S_TEXT/ASS
Codec ID/Info               : Advanced Sub Station Alpha
Compression mode            : Lossless
Language                    : English
Default                     : No
Forced                      : No

Menu
00:00:00.000                : en:How Lenny Works
00:05:10.101                : en:Old School
00:08:48.903                : en:Meet The Accountant
00:12:34.420                : en:Runaround with Councillor
00:15:28.427                : en:Slapped with a Job
00:18:35.864                : en:Money Transfer
00:23:05.509                : en:Junkie Minds; The Payoff
00:28:17.904                : en:What Bob Wants
00:34:02.832                : en:Immersive Interrogation
00:38:55.750                : en:Shrink Time
00:44:27.373                : en:Think We're Gangsters
00:47:09.034                : en:I Run This Town
00:51:28.668                : en:Party Conversations
00:57:48.548                : en:Making a Complaint
01:00:41.512                : en:Something About Bob
01:03:11.496                : en:Worth More Dead
01:06:21.978                : en:Car Trouble
01:11:38.294                : en:Rush Of Russians
01:16:00.264                : en:Truth Splitting
01:22:12.427                : en:Picture Poachers
01:26:02.866                : en:Welcome/Unwelcome Visitors
01:29:50.301                : en:This a Bad Time?
01:32:45.184                : en:Beauty Is a Cruel Mistress
01:36:05.509                : en:All the Old Faces
01:40:54.548                : en:Dirty Sidney
01:43:23.030                : en:Johnny Calls the Shots
01:45:26.153                : en:Becoming Real
01:48:22.120                : en:End Credits


Код:
[info]: 1280x534p 1:1 @ 24000/1001 fps (cfr)
[info]: using SAR=1/1
[info]: using cpu capabilities: MMX2 SSE2Fast SSSE3 SSE4.2 AVX
[info]: profile High, level 4.1
[info]: frame I:1355  Avg QP:11.74  size:115838
[info]: frame P:35255 Avg QP:13.00  size: 54311
[info]: frame B:127842 Avg QP:14.69  size: 20046
[info]: consecutive B-frames:  2.2%  2.2%  6.4% 19.8% 21.5% 36.3%  5.8%  4.0%  1.7%
[info]: mb I  I16..4:  3.7% 80.5% 15.8%
[info]: mb P  I16..4:  0.3% 21.4%  1.5%  P16..4: 20.9% 30.9% 18.4%  4.9%  0.4%    skip: 1.4%
[info]: mb B  I16..4:  0.0%  2.5%  0.2%  B16..8: 29.7% 29.9%  8.5%  direct: 7.3%  skip:21.8%  L0:44.1% L1:41.0% BI:14.9%
[info]: 8x8 transform intra:91.3% inter:39.0%
[info]: coded y,uvDC,uvAC intra: 97.7% 86.3% 75.7% inter: 40.5% 15.6% 5.0%
[info]: i16 v,h,dc,p: 19%  9%  6% 66%
[info]: i8 v,h,dc,ddl,ddr,vr,hd,vl,hu: 13% 10% 16%  8% 10% 10% 10% 10% 12%
[info]: i4 v,h,dc,ddl,ddr,vr,hd,vl,hu: 20%  8%  4%  8% 14% 13% 12% 10% 10%
[info]: i8c dc,h,v,p: 48% 24% 16% 12%
[info]: Weighted P-Frames: Y:2.8% UV:1.5%
[info]: ref P L0: 42.7%  8.2% 18.5%  6.7%  6.2%  4.2%  4.1%  2.1%  2.1%  1.7%  1.8%  1.5%  0.2%  0.0%
[info]: ref B L0: 68.6% 12.7%  6.2%  3.4%  2.5%  2.1%  1.7%  1.1%  0.9%  0.6%  0.2%
[info]: ref B L1: 92.0%  8.0%
[info]: kb/s:5405.38

encoded 164452 frames, 7.19 fps, 5405.38 kb/s, duration 6:21:19.45




Джерела та подяки: &
ріп відео, оригінальні звук та субтитри - SbR (він же Skazhutin) - HDClub; українська доріжка - (Lan / MTG / Skiff)? - зведення, MAKAPOHHIK - запис з ТБ; українські субтитри - SDІ Меdіа Grоuр, обробка - antikillW (HQClub) (подяка Lan'у), українізовані постери - офіційний, mrdavis; фільмографії акторів та інформація про озвучення - Віктор (всі - Гуртом).


ЗАЛИШАЙТЕСЬ ЯКОМОГА ДОВШЕ НА РОЗДАЧІ!

СКАЧАВ САМ - ДАЙ СКАЧАТИ ІНШИМ


 Трекер:    Зареєстрований   

Завантажити / скачати фільм українською



відео для новачків



 Зареєстрований:   2014-12-17 21:11
 Розмір:   5.89 GB 
 Оцінка фільму:   5.9/10 (Голосів: 28)
   
Інші релізи
Maters 
VIP


З нами з: 27.03.12
Востаннє: 07.12.16
Повідомлень: 1162

2014-12-17 23:12  
О, нагадали за цей крутий фільмець. Треба буде ще раз переглянути! ))
Virake 
Localize Team
Localize Team


З нами з: 07.07.09
Востаннє: 07.12.16
Повідомлень: 4063

2016-01-02 00:11  
наче і драйву більше, й інтриги, але чогось бракує. Ґай Річі вже не той...
Ваш часовий пояс: GMT + 2 Години

Нова тема   Відповісти