Завантажити та скачати торренти українською


Діти без нагляду / Unaccompanied Minors (2006) 720p Ukr/Eng | Sub Ukr/Eng

Нові коментарі

Нова тема   Відповісти
Автор Повідомлення
Anonymous 







2014-12-17 20:17  
Діти без нагляду / Unaccompanied Minors (2006) 720p Ukr/Eng | Sub Ukr/Eng



Жанр: комедія, пригодницький, сімейний
Країна: США



Кінокомпанія: Warner Bros., Village Roadshow Pictures, Donners' Company
Режисер: Пол Фіг / Paul Feig
Актори: Льюїс Блек / Lewis Black, Вілмер Вальдеррама / Wilmer Valderrama, Тайлер Джеймс Вільямс / Tyler James Williams, Діллан Крістофер / Dyllan Christopher, Бретт Келлі / Brett Kelly, Джина Мантенья / Gia Mantegna, Квінн Шепард / Quinn Shephard, Роб Кордрі / Rob Corddry, Домінік Салдана / Dominique Saldaña та інші

Сюжет:
Напередодні Різдва п'ятьох дітей, що подорожують без батьків, сніговий буревій заблокував в аеропорту. Фільм розповідає про те, як ця юна компанія спробує перехитрити розлючених охоронців аеропорту і знову зустрітися з рідними.

За допомогою "тимчасово позичених" кредитних карток і бортпровідника, який неохоче їм допомагає, діти доведуть, що головне не те, де ти зустрічаєш Різдво, а те, з ким ти його зустрічаєш ...


Рейтинг MPAA: PG - рекомендується присутність батьків
Вікова категорія: 8+

Тривалість: 01:29:48
Якість: 720p
Відео:
кодек:
розмір кадру: 1280x534
бітрейт: 4037 кбіт/с

Аудіо # 1:
мова: українська
переклад: багатоголосий закадровий
кодек: 2.0
бітрейт: 192 кбіт/с

Аудіо # 2:
мова: англійська
переклад: оригінал
кодек: 5.1
бітрейт: 384 кбіт/с

Аудіо # 3:
мова: англійська
переклад: коментарі режисера та авторів фільму
кодек: 2.0
бітрейт: 192 кбіт/с

Субтитри #1:
мова: українська
тип: програмні (м'які)
формат: *.srt

Субтитри #2:
мова: англійська
тип: програмні (м'які)
формат: *.srt

Збережено оригінальні розділи, як на Blu-ray.
MediaInfo
Код:
General
Unique ID                   : 238679235042942671427658108443761149531 (0xB38FF2D69D6D633B9C392442853D865B)
Complete name               : Unaccompanied Minors (2006) [Ukr,Eng sub.Ukr,Eng] 720p [Hurtom & HDClub].mkv
Format                      : Matroska
Format version              : Version 4 / Version 2
File size                   : 3.08 GiB
Duration                    : 1h 29mn
Overall bit rate            : 4 902 Kbps
Movie name                  : Діти без нагляду / Unaccompanied Minors (2006) 720p [Hurtom & HDClub]
Encoded date                : UTC 2014-12-17 17:16:31
Writing application         : mkvmerge v7.4.0 ('Circles') 64bit built on Dec 12 2014 12:19:56
Writing library             : libebml v1.3.0 + libmatroska v1.4.1
DURATION                    : 01:29:48.192000000
NUMBER_OF_FRAMES            : 168381
NUMBER_OF_BYTES             : 258633216
_STATISTICS_WRITING_APP     : mkvmerge v7.4.0 ('Circles') 64bit built on Dec 12 2014 12:19:56
_STATISTICS_WRITING_DATE_UT : 2014-12-17 17:16:31
_STATISTICS_TAGS            : BPS DURATION NUMBER_OF_FRAMES NUMBER_OF_BYTES

Video
ID                          : 1
Format                      : AVC
Format/Info                 : Advanced Video Codec
Format profile              : [email protected]
Format settings, CABAC      : No
Format settings, ReFrames   : 2 frames
Codec ID                    : V_MPEG4/ISO/AVC
Duration                    : 1h 29mn
Bit rate                    : 4 037 Kbps
Width                       : 1 280 pixels
Height                      : 534 pixels
Display aspect ratio        : 2.40:1
Frame rate mode             : Constant
Frame rate                  : 23.976 fps
Color space                 : YUV
Chroma subsampling          : 4:2:0
Bit depth                   : 8 bits
Scan type                   : Progressive
Bits/(Pixel*Frame)          : 0.246
Stream size                 : 2.53 GiB (82%)
Title                       : Діти без нагляду / Unaccompanied Minors / Дети без присмотра (2006) 720p [HDClub]
Language                    : English
Default                     : Yes
Forced                      : No
Color primaries             : BT.709
Transfer characteristics    : BT.709
Matrix coefficients         : BT.709
Color range                 : Limited

Audio #1
ID                          : 2
Format                      : AC-3
Format/Info                 : Audio Coding 3
Mode extension              : CM (complete main)
Format settings, Endianness : Big
Codec ID                    : A_AC3
Duration                    : 1h 29mn
Bit rate mode               : Constant
Bit rate                    : 192 Kbps
Channel(s)                  : 2 channels
Channel positions           : Front: L R
Sampling rate               : 48.0 KHz
Bit depth                   : 16 bits
Compression mode            : Lossy
Delay relative to video     : 8ms
Stream size                 : 123 MiB (4%)
Title                       : MVO [K1] 2.0 192 kbps [Hurtom-Bohdan237,olgaya] [-632ms]
Language                    : Ukrainian
Default                     : Yes
Forced                      : No

Audio #2
ID                          : 3
Format                      : AC-3
Format/Info                 : Audio Coding 3
Mode extension              : CM (complete main)
Format settings, Endianness : Big
Codec ID                    : A_AC3
Duration                    : 1h 29mn
Bit rate mode               : Constant
Bit rate                    : 384 Kbps
Channel(s)                  : 6 channels
Channel positions           : Front: L C R, Side: L R, LFE
Sampling rate               : 48.0 KHz
Bit depth                   : 16 bits
Compression mode            : Lossy
Stream size                 : 247 MiB (8%)
Title                       : Original 5.1 384 kbps
Language                    : English
Default                     : No
Forced                      : No

Audio #3
ID                          : 4
Format                      : AC-3
Format/Info                 : Audio Coding 3
Mode extension              : CM (complete main)
Format settings, Endianness : Big
Codec ID                    : A_AC3
Duration                    : 1h 29mn
Bit rate mode               : Constant
Bit rate                    : 192 Kbps
Channel(s)                  : 2 channels
Channel positions           : Front: L R
Sampling rate               : 48.0 KHz
Bit depth                   : 16 bits
Compression mode            : Lossy
Stream size                 : 123 MiB (4%)
Title                       : Commentary
Language                    : English
Default                     : No
Forced                      : No

Text #1
ID                          : 5
Format                      : UTF-8
Codec ID                    : S_TEXT/UTF8
Codec ID/Info               : UTF-8 Plain Text
Title                       : Ukr full [SDІ Меdіа Grоuр] [OCR Hurtom-igor911]
Language                    : Ukrainian
Default                     : No
Forced                      : No

Text #2
ID                          : 6
Format                      : UTF-8
Codec ID                    : S_TEXT/UTF8
Codec ID/Info               : UTF-8 Plain Text
Title                       : Eng full [SDІ Меdіа Grоuр] [OCR Hurtom-igor911]
Language                    : English
Default                     : No
Forced                      : No

Menu
00:00:00.000                : en:Santa's Lap
00:03:29.000                : en:Spencer and Katherine
00:04:29.000                : en:Cancelled
00:07:24.000                : en:UM Room
00:09:41.000                : en:Donna; Beef
00:10:12.000                : en:Charlie; Grace
00:12:50.000                : en:Fun On the Run
00:18:24.000                : en:Hop In!
00:20:17.000                : en:Dr. Evil
00:27:21.000                : en:Message For Zach
00:30:52.000                : en:Team UM
00:35:54.000                : en:Uncaged; Unclaimed
00:39:02.000                : en:Baggage Bedlam
00:41:53.000                : en:What's Inside?
00:45:59.000                : en:Charlie's Dance
00:50:47.000                : en:Snow Canoe
00:57:09.000                : en:Room Service!
01:00:23.000                : en:Shhh!
01:02:11.000                : en:Private Rooms
01:06:13.000                : en:The Great Escape
01:11:08.000                : en:Deck the Halls
01:15:45.000                : en:Gifts From Santa
01:20:56.000                : en:'Tis the Season
01:24:13.000                : en:End Credits




Джерела та подяки: &
відео - вихідний придбаний за кошти користувачів HDClub; оригінальний звук, українські та оригінальні субтитри - igor911 - витягнуто з DVD R5 та розпізнано/оброблено/синхронізовано; українська доріжка - Bohdan237 - зведення, olgaya - запис з ТБ; українізований постер - Bohdan237 (всі - Гуртом).

Особиста оцінка: 8 - рекомендую школярам та їх батькам


ЗАЛИШАЙТЕСЬ ЯКОМОГА ДОВШЕ НА РОЗДАЧІ!

СКАЧАВ САМ - ДАЙ СКАЧАТИ ІНШИМ


 Трекер:    Зареєстрований   

Завантажити / скачати фільм українською



відео для новачків



 Зареєстрований:   2014-12-17 20:17
 Розмір:   3.08 GB 
 Оцінка фільму:   3.6/10 (Голосів: 14)
   
Інші релізи
Anonymous 







2014-12-18 12:38  
Виклав AVI реліз цього фільму: http://toloka.to/t61656
Ваш часовий пояс: GMT + 2 Години

Нова тема   Відповісти