Завантажити та скачати торренти українською


Дом Хемінґвей / Dom Hemingway (2013) AVC Ukr/Eng | Sub Ukr/Eng

Нові коментарі

Нова тема   Відповісти
Автор Повідомлення
Anonymous 







2014-12-17 12:43  
Дом Хемінґвей / Dom Hemingway (2013) AVC Ukr/Eng | Sub Ukr/Eng



Жанр: драма, комедія, кримінальний
Країна: Велика Британія



Кінокомпанія: Recorded Picture Company (RPC), BBC Films, Isle of Man Film, Pinewood Studios
Режисер: Річард Шепард / Richard Shepard
Актори: Джуд Лоу / Jude Law, Річард Ґрант / Richard E. Grant, Деміан Бішир / Demián Bichir, Емілія Кларк / Emilia Clarke, Лука Франзоні / Luca Franzoni, Річард Ґрегем / Richard Graham, Джордж Свіней / George Sweeney, Марк Вінґетт / Mark Wingett, Девід Бокем / David Baukham, Нік Раґґетт / Nick Raggett та інші

Сюжет:
Головний герой - віртуозний зломщик сейфів, що відрізняється веселою вдачею та цинізмом, але при цьому становить реальну загрозу. Провівши 12 років у в'язниці і вийшовши на свободу, він має намір витребувати борг, який належить йому за те, що він тримав язик за зубами.
"Підпільна імперія" на 1+1



Рейтинг MPAA: R - особам до 17 років обов'язкова присутність батьків або дорослого опікуна
Вікова категорія: 16+

Тривалість: 01:33:47
Якість: AVC
Відео:
кодек:
розмір кадру: 1024x436
бітрейт: 2017 кбіт/с

Аудіо # 1:
мова: українська
переклад: багатоголосий закадровий
кодек: 2.0
бітрейт: 192 кбіт/с

Аудіо # 2:
мова: англійська
переклад: оригінал
кодек: 5.1
бітрейт: 384 кбіт/с

Субтитри #1:
мова: українська
тип: програмні (м'які)
формат: *.srt

Субтитри #2:
мова: англійська (SDH)
тип: програмні (м'які)
формат: *.srt
MediaInfo
Код:
General
Unique ID                   : 251356392658451131956183417092491092240 (0xBD197AF72150F4A8BA3A547EABFAA110)
Complete name               : Dom Heminguey (2013) [Ukr,Eng sub.Ukr,Eng] AVC [Hurtom].mkv
Format                      : Matroska
Format version              : Version 4 / Version 2
File size                   : 1.70 GiB
Duration                    : 1h 33mn
Overall bit rate            : 2 596 Kbps
Movie name                  : Дом Хемінґвей / Dom Hemingway (2013) AVC [Ukr,Eng sub.Ukr,Eng] [Hurtom]
Encoded date                : UTC 2014-12-17 06:27:40
Writing application         : mkvmerge v7.4.0 ('Circles') 64bit built on Dec 12 2014 12:19:56
Writing library             : libebml v1.3.0 + libmatroska v1.4.1
DURATION                    : 01:33:46.784000000
NUMBER_OF_FRAMES            : 175837
NUMBER_OF_BYTES             : 270085632
_STATISTICS_WRITING_APP     : mkvmerge v7.4.0 ('Circles') 64bit built on Dec 12 2014 12:19:56
_STATISTICS_WRITING_DATE_UT : 2014-12-17 06:27:40
_STATISTICS_TAGS            : BPS DURATION NUMBER_OF_FRAMES NUMBER_OF_BYTES

Video
ID                          : 1
Format                      : AVC
Format/Info                 : Advanced Video Codec
Format profile              : [email protected]
Format settings, CABAC      : Yes
Format settings, ReFrames   : 8 frames
Codec ID                    : V_MPEG4/ISO/AVC
Duration                    : 1h 33mn
Bit rate                    : 2 017 Kbps
Width                       : 1 024 pixels
Height                      : 436 pixels
Display aspect ratio        : 2.35:1
Frame rate mode             : Constant
Frame rate                  : 24.000 fps
Color space                 : YUV
Chroma subsampling          : 4:2:0
Bit depth                   : 8 bits
Scan type                   : Progressive
Bits/(Pixel*Frame)          : 0.188
Stream size                 : 1.29 GiB (76%)
Title                       : Дом Хемінґвей / Dom Hemingway / Дом Хемингуэй (2013) AVC [Hurtom-Vasua95]
Writing library             : core 142 r2479 dd79a61
Encoding settings           : cabac=1 / ref=8 / deblock=1:-1:-1 / analyse=0x1:0x131 / me=umh / subme=9 / psy=1 / psy_rd=1.00:0.15 / mixed_ref=1 / me_range=16 / chroma_me=1 / trellis=2 / 8x8dct=0 / cqm=0 / deadzone=21,11 / fast_pskip=1 / chroma_qp_offset=-3 / threads=6 / lookahead_threads=1 / sliced_threads=0 / nr=0 / decimate=1 / interlaced=0 / bluray_compat=0 / constrained_intra=0 / bframes=3 / b_pyramid=2 / b_adapt=2 / b_bias=0 / direct=3 / weightb=1 / open_gop=0 / weightp=2 / keyint=240 / keyint_min=24 / scenecut=40 / intra_refresh=0 / rc_lookahead=60 / rc=2pass / mbtree=1 / bitrate=2017 / ratetol=1.0 / qcomp=0.60 / qpmin=0 / qpmax=69 / qpstep=4 / cplxblur=20.0 / qblur=0.5 / vbv_maxrate=50000 / vbv_bufsize=62500 / nal_hrd=none / filler=0 / ip_ratio=1.40 / aq=1:1.00
Language                    : English
Default                     : Yes
Forced                      : No
Color primaries             : BT.709
Transfer characteristics    : BT.709
Matrix coefficients         : BT.709
Color range                 : Limited
DURATION                    : 01:33:46.542000000
NUMBER_OF_FRAMES            : 135037
NUMBER_OF_BYTES             : 1418828057
_STATISTICS_WRITING_APP     : mkvmerge v7.4.0 ('Circles') 64bit built on Dec 12 2014 12:19:56
_STATISTICS_WRITING_DATE_UT : 2014-12-17 06:27:40
_STATISTICS_TAGS            : BPS DURATION NUMBER_OF_FRAMES NUMBER_OF_BYTES

Audio #1
ID                          : 2
Format                      : AC-3
Format/Info                 : Audio Coding 3
Mode extension              : CM (complete main)
Format settings, Endianness : Big
Codec ID                    : A_AC3
Duration                    : 1h 33mn
Bit rate mode               : Constant
Bit rate                    : 192 Kbps
Channel(s)                  : 2 channels
Channel positions           : Front: L R
Sampling rate               : 48.0 KHz
Bit depth                   : 16 bits
Compression mode            : Lossy
Delay relative to video     : -83ms
Stream size                 : 129 MiB (7%)
Title                       : MVO [1+1] 2.0 192 kbps [Hurtom-karvai0]
Language                    : Ukrainian
Default                     : Yes
Forced                      : No

Audio #2
ID                          : 3
Format                      : AC-3
Format/Info                 : Audio Coding 3
Mode extension              : CM (complete main)
Format settings, Endianness : Big
Codec ID                    : A_AC3
Duration                    : 1h 33mn
Bit rate mode               : Constant
Bit rate                    : 384 Kbps
Channel(s)                  : 6 channels
Channel positions           : Front: L C R, Side: L R, LFE
Sampling rate               : 48.0 KHz
Bit depth                   : 16 bits
Compression mode            : Lossy
Delay relative to video     : -83ms
Stream size                 : 258 MiB (15%)
Title                       : Original
Language                    : English
Default                     : No
Forced                      : No

Text #1
ID                          : 4
Format                      : UTF-8
Codec ID                    : S_TEXT/UTF8
Codec ID/Info               : UTF-8 Plain Text
Language                    : Ukrainian
Default                     : No
Forced                      : No

Text #2
ID                          : 5
Format                      : UTF-8
Codec ID                    : S_TEXT/UTF8
Codec ID/Info               : UTF-8 Plain Text
Language                    : English
Default                     : No
Forced                      : No




Джерела та подяки:
ріп відео - Vasua95, українська доріжка - karvai0 - зведення, OlegCena, xslim - запис з ТБ; українізований постер - Gelios (всі - Гуртом).


ЗАЛИШАЙТЕСЬ ЯКОМОГА ДОВШЕ НА РОЗДАЧІ!

СКАЧАВ САМ - ДАЙ СКАЧАТИ ІНШИМ


 Трекер:    Зареєстрований   

Завантажити / скачати фільм українською



відео для новачків



 Зареєстрований:   2014-12-17 12:43
 Розмір:   1.7 GB 
 Оцінка фільму:   5.4/10 (Голосів: 29)
   
Інші релізи
zhman 
Частий відвідувач


З нами з: 21.12.14
Востаннє: 03.12.16
Повідомлень: 35

2014-12-26 21:57  
діалоги, монологи - просто супер!
S1S 
Свій


З нами з: 10.09.10
Востаннє: 20.11.16
Повідомлень: 53

2014-12-29 18:47  
Думав Дом Хемінґвей буде схожий на фільм Ірландець / Kill the Irishman. Після половини перегляду розчарувався Sad (1) 7/10
Меркурий 
Новенький


З нами з: 20.11.10
Востаннє: 31.12.14
Повідомлень: 6

2014-12-29 18:54  
Підкажіть, будь ласка, що я роблю не так. Після завантаження немає звуку. Маю тільки картинку.
S1S 
Свій


З нами з: 10.09.10
Востаннє: 20.11.16
Повідомлень: 53

2014-12-29 20:00  
Меркурий
Цитата:
Підкажіть, будь ласка, що я роблю не так. Після завантаження немає звуку. Маю тільки картинку.

Можливо звук на самому ПК виключений або пробуй обновити кодики та драйвера бо в мене все добре Happy

Меркурий 
Новенький


З нами з: 20.11.10
Востаннє: 31.12.14
Повідомлень: 6

2014-12-29 21:07  
Дякую за відповідь. Один мультфільм таки завантажився із звуком. Все інше поспіль - без звуку.
Файли мають розширення .avi та .mkv. На останнє комп взагалі пише, що воно не відповідає формату файла. Вже вибираю тільки .avi - перевіряю на мультіках, бо вони коротеньки, але вони взагалі не відкриваються.
Де б знайти ті драйвера чи кодики, що мені їх бракує?

NeetScrool 
Відео Гуртом - фільмокрай
Відео Гуртом - фільмокрай


З нами з: 10.01.13
Востаннє: 05.12.16
Повідомлень: 2214

2014-12-29 21:20  
Меркурий
http://toloka.to/t49012

Меркурий 
Новенький


З нами з: 20.11.10
Востаннє: 31.12.14
Повідомлень: 6

2014-12-29 22:31  
NeetScrool

Дякую, завантажив. Те, що раніше було без звуку, осталося без звуку. Те, що взагалі не відкривалося, не відкривається. Міркую, що треба заново завантажити фільми та мультіки?

Anonymous 







2014-12-29 23:01  
Меркурий написано:
Дякую, завантажив
тепер треба встановити та перезавантажитись Happy
NeetScrool 
Відео Гуртом - фільмокрай
Відео Гуртом - фільмокрай


З нами з: 10.01.13
Востаннє: 05.12.16
Повідомлень: 2214

2014-12-29 23:44  
Меркурий
Після встановлення кодеків звук мав з'явитися.
А у вас взагалі звук?

Меркурий 
Новенький


З нами з: 20.11.10
Востаннє: 31.12.14
Повідомлень: 6

2014-12-29 23:58  
З чотирьох кодеків встановив одного, бо інші потребують деінсталювати попереднього...
Але звук тепер є. Спробую завантажити якійсь фільм. Шкода, що раніше завантажені фільми видалив.
Дякую всім за оперативну допомогу!

S1S 
Свій


З нами з: 10.09.10
Востаннє: 20.11.16
Повідомлень: 53

2014-12-31 20:56  
Меркурий написано:
Файли мають розширення .avi та .mkv. На останнє комп взагалі пише, що воно не відповідає формату файла.

В мене таке бувало на Windows Media Player. Встанови собі KM Player і все має бути добре) З наступаючим Happy

Ваш часовий пояс: GMT + 2 Години

Нова тема   Відповісти