Завантажити та скачати торренти українською


Дядечко Бак / Uncle Buck (1989) 720p Ukr/Eng | Sub Eng

Нові коментарі

Нова тема   Відповісти
Автор Повідомлення
Anonymous 







2014-12-16 12:07  
Дядечко Бак / Uncle Buck (1989) 720p Ukr/Eng | Sub Eng



Жанр: драма, комедія, сімейний
Країна: США



Кінокомпанія: Universal Pictures, Hughes Entertainment
Режисер: Джон Хьюз / John Hughes
Актори: Джон Кенді / John Candy, Джоан Луіза Келлі / Jean Louisa Kelly, Маколей Калкін / Macaulay Culkin, Емі Медіган / Amy Madigan, Гебі Хоффман / Gaby Hoffmann та інші

Сюжет:
Ледачкуватого, доброзичливого дядечка-холостяка просять приглянути за племінниками на час сімейної кризи їх батьків. До дядечка Бака ті звернулися у відчаї: більше залишити дітей ні з ким. Але трохи везіння, багато любові - і дядько Бак зуміє всіх здивувати.


Рейтинг MPAA: PG - рекомендується присутність батьків
Вікова категорія: 8+

Тривалість: 01:39:45
Якість: 720p [CtrlHD]
Відео:
кодек:
розмір кадру: 1280x694
бітрейт: 5891 кбіт/с

Аудіо # 1:
мова: українська
переклад: багатоголосий закадровий
кодек: 2.0
бітрейт: 192 кбіт/с

Аудіо # 2:
мова: англійська
переклад: оригінал
кодек: 2.0
бітрейт: 384 кбіт/с

Субтитри:
мова: англійська
тип: програмні (м'які)
формат: *.ass

Збережено оригінальні розділи, як на Blu-ray.
MediaInfo
Код:
General
Unique ID                   : 204750275258134542817551291239189152146 (0x9A0977F7C008C1FCA7831D2F728B8192)
Complete name               : Uncle Buck (1989) [Ukr,Eng sub.Eng] 720p [Hurtom].mkv
Format                      : Matroska
Format version              : Version 4 / Version 2
File size                   : 4.50 GiB
Duration                    : 1h 39mn
Overall bit rate            : 6 462 Kbps
Movie name                  : Дядечко Бак / Uncle Buck (1989) 720p [Hurtom]
Encoded date                : UTC 2014-12-16 09:30:31
Writing application         : mkvmerge v7.4.0 ('Circles') 64bit built on Dec 12 2014 12:19:56
Writing library             : libebml v1.3.0 + libmatroska v1.4.1
DURATION                    : 01:39:45.376000000
NUMBER_OF_FRAMES            : 187043
NUMBER_OF_BYTES             : 143649024
_STATISTICS_WRITING_APP     : mkvmerge v7.4.0 ('Circles') 64bit built on Dec 12 2014 12:19:56
_STATISTICS_WRITING_DATE_UT : 2014-12-16 09:30:31
_STATISTICS_TAGS            : BPS DURATION NUMBER_OF_FRAMES NUMBER_OF_BYTES

Video
ID                          : 1
Format                      : AVC
Format/Info                 : Advanced Video Codec
Format profile              : [email protected]
Format settings, CABAC      : Yes
Format settings, ReFrames   : 9 frames
Codec ID                    : V_MPEG4/ISO/AVC
Duration                    : 1h 39mn
Bit rate                    : 5 891 Kbps
Width                       : 1 280 pixels
Height                      : 694 pixels
Display aspect ratio        : 1.85:1
Frame rate mode             : Constant
Frame rate                  : 23.976 fps
Color space                 : YUV
Chroma subsampling          : 4:2:0
Bit depth                   : 8 bits
Scan type                   : Progressive
Bits/(Pixel*Frame)          : 0.277
Stream size                 : 4.01 GiB (89%)
Title                       : Дядечко Бак / Uncle Buck / Дядюшка Бак (1989) 720p [CtrlHD]
Writing library             : core 113 r1884 7313bb5
Encoding settings           : cabac=1 / ref=9 / deblock=1:-3:-3 / analyse=0x3:0x133 / me=umh / subme=10 / psy=1 / psy_rd=0.80:0.00 / mixed_ref=1 / me_range=48 / chroma_me=1 / trellis=2 / 8x8dct=1 / cqm=0 / deadzone=21,11 / fast_pskip=1 / chroma_qp_offset=-2 / threads=6 / sliced_threads=0 / nr=0 / decimate=1 / interlaced=0 / constrained_intra=0 / bframes=6 / b_pyramid=2 / b_adapt=2 / b_bias=0 / direct=3 / weightb=1 / open_gop=0 / weightp=2 / keyint=250 / keyint_min=23 / scenecut=40 / intra_refresh=0 / rc_lookahead=40 / rc=2pass / mbtree=1 / bitrate=5891 / ratetol=1.0 / qcomp=0.60 / qpmin=0 / qpmax=69 / qpstep=4 / cplxblur=20.0 / qblur=0.5 / ip_ratio=1.40 / aq=1:1.20
Language                    : English
Default                     : Yes
Forced                      : No
DURATION                    : 01:39:45.396000000
NUMBER_OF_FRAMES            : 143506
NUMBER_OF_BYTES             : 4401572902
_STATISTICS_WRITING_APP     : mkvmerge v7.4.0 ('Circles') 64bit built on Dec 12 2014 12:19:56
_STATISTICS_WRITING_DATE_UT : 2014-12-16 09:30:31
_STATISTICS_TAGS            : BPS DURATION NUMBER_OF_FRAMES NUMBER_OF_BYTES

Audio #1
ID                          : 2
Format                      : AC-3
Format/Info                 : Audio Coding 3
Mode extension              : CM (complete main)
Format settings, Endianness : Big
Codec ID                    : A_AC3
Duration                    : 1h 39mn
Bit rate mode               : Constant
Bit rate                    : 192 Kbps
Channel(s)                  : 2 channels
Channel positions           : Front: L R
Sampling rate               : 48.0 KHz
Bit depth                   : 16 bits
Compression mode            : Lossy
Stream size                 : 137 MiB (3%)
Title                       : MVO [NLO.TV] 2.0 192 kbps [Hurtom-NemoInFire]
Language                    : Ukrainian
Default                     : Yes
Forced                      : No

Audio #2
ID                          : 3
Format                      :
Format/Info                 : Digital Theater Systems
Mode                        : 16
Format settings, Endianness : Big
Codec ID                    : A_DTS
Duration                    : 1h 39mn
Bit rate mode               : Constant
Bit rate                    : 384 Kbps
Channel(s)                  : 2 channels
Channel positions           : Front: L R
Sampling rate               : 48.0 KHz
Bit depth                   : 24 bits
Compression mode            : Lossy
Delay relative to video     : 44ms
Stream size                 : 274 MiB (6%)
Title                       : Original 2.0 384 kbps
Language                    : English
Default                     : No
Forced                      : No

Text
ID                          : 4
Format                      : ASS
Codec ID                    : S_TEXT/ASS
Codec ID/Info               : Advanced Sub Station Alpha
Compression mode            : Lossless
Language                    : English
Default                     : No
Forced                      : No

Menu
00:00:00.000                : en:00:00:00.000
00:06:12.372                : en:00:06:12.372
00:12:54.190                : en:00:12:54.190
00:18:37.700                : en:00:18:37.700
00:23:03.090                : en:00:23:03.090
00:30:40.797                : en:00:30:40.797
00:36:45.495                : en:00:36:45.495
00:39:42.630                : en:00:39:42.630
00:45:41.697                : en:00:45:41.697
00:53:32.418                : en:00:53:32.418
00:59:13.383                : en:00:59:13.383
01:10:18.381                : en:01:10:18.381
01:15:35.948                : en:01:15:35.948
01:21:24.129                : en:01:21:24.129
01:28:07.240                : en:01:28:07.240
01:31:20.433                : en:01:31:20.433




Джерела та подяки:
ріп відео, оригінальні звук та субтитри - CtrlHD (HDbits); українська доріжка - NemoInFire - зведення, POMEO - запис з ТБ; фільмографії акторів та інформація про озвучення - Віктор (всі - Гуртом).

Особиста оцінка: 8 - мені сподобалося


ЗАЛИШАЙТЕСЬ ЯКОМОГА ДОВШЕ НА РОЗДАЧІ!

СКАЧАВ САМ - ДАЙ СКАЧАТИ ІНШИМ


Срібний реліз (на рейтинг впливає 50% завантаженого)
 Трекер:    Зареєстрований   

Завантажити / скачати фільм українською



відео для новачків



 Зареєстрований:   2014-12-16 12:07
 Розмір:   4.5 GB 
 Оцінка фільму:   3.6/10 (Голосів: 14)
   
Інші релізи
   Дядечко Бак / Uncle Buck (1989) [640 x 360] apvAltisimo  0 / 0   641 MB   2015-07-29 14:13 
   Дядечко Бак / Uncle Buck (1989) NemoInFire  6 / 0   1.6 GB   2014-12-13 13:01 
Ваш часовий пояс: GMT + 2 Години

Нова тема   Відповісти