Завантажити та скачати торренти українською


Дом Хемінґвей / Dom Hemingway (2013) 720p Ukr/Eng | Sub Ukr/Eng

Нові коментарі

Нова тема   Відповісти
Останній раз роздавалося igor911 (2016-12-09)
Автор Повідомлення
Anonymous 







2014-12-16 11:00  
Дом Хемінґвей / Dom Hemingway (2013) 720p Ukr/Eng | Sub Ukr/Eng



Жанр: драма, комедія, кримінальний
Країна: Велика Британія



Кінокомпанія: Recorded Picture Company (RPC), BBC Films, Isle of Man Film, Pinewood Studios
Режисер: Річард Шепард / Richard Shepard
Актори: Джуд Лоу / Jude Law, Річард Ґрант / Richard E. Grant, Деміан Бішир / Demián Bichir, Емілія Кларк / Emilia Clarke, Лука Франзоні / Luca Franzoni, Річард Ґрегем / Richard Graham, Джордж Свіней / George Sweeney, Марк Вінґетт / Mark Wingett, Девід Бокем / David Baukham, Нік Раґґетт / Nick Raggett та інші

Сюжет:
Головний герой - віртуозний зломщик сейфів, що відрізняється веселою вдачею та цинізмом, але при цьому становить реальну загрозу. Провівши 12 років у в'язниці і вийшовши на свободу, він має намір витребувати борг, який належить йому за те, що він тримав язик за зубами.
"Підпільна імперія" на 1+1



Рейтинг MPAA: R - особам до 17 років обов'язкова присутність батьків або дорослого опікуна
Вікова категорія: 16+

Тривалість: 01:33:47
Якість: 720p [CINEMANIA]
Відео:
кодек:
розмір кадру: 1280x544
бітрейт: 4508 кбіт/с

Аудіо # 1:
мова: українська
переклад: багатоголосий закадровий
кодек: 2.0
бітрейт: 192 кбіт/с

Аудіо # 2:
мова: англійська
переклад: оригінал
кодек: 5.1
бітрейт: 768 кбіт/с

Субтитри #1:
мова: українська
тип: програмні (м'які)
формат: *.srt

Субтитри #2:
мова: англійська (SDH)
тип: програмні (м'які)
формат: *.srt

Збережено оригінальні розділи, як на Blu-ray.
MediaInfo
Код:
General
Unique ID                   : 170810540897183125521027352565423927482 (0x8080E9DE9D75EC519F3C35EAC76DF0BA)
Complete name               : Dom Heminguey (2013) [Ukr,Eng sub.Ukr,Eng] 720p [Hurtom].mkv
Format                      : Matroska
Format version              : Version 4 / Version 2
File size                   : 3.65 GiB
Duration                    : 1h 33mn
Overall bit rate            : 5 579 Kbps
Movie name                  : Дом Хемінґвей / Dom Hemingway (2013) 720p [Hurtom]
Encoded date                : UTC 2014-12-16 06:50:12
Writing application         : mkvmerge v7.4.0 ('Circles') 64bit built on Dec 12 2014 12:19:56
Writing library             : libebml v1.3.0 + libmatroska v1.4.1
DURATION                    : 01:27:54.177000000
NUMBER_OF_FRAMES            : 1220
NUMBER_OF_BYTES             : 66430
_STATISTICS_WRITING_APP     : mkvmerge v7.4.0 ('Circles') 64bit built on Dec 12 2014 12:19:56
_STATISTICS_WRITING_DATE_UT : 2014-12-16 06:50:12
_STATISTICS_TAGS            : BPS DURATION NUMBER_OF_FRAMES NUMBER_OF_BYTES

Video
ID                          : 1
Format                      : AVC
Format/Info                 : Advanced Video Codec
Format profile              : [email protected]
Format settings, CABAC      : Yes
Format settings, ReFrames   : 12 frames
Codec ID                    : V_MPEG4/ISO/AVC
Duration                    : 1h 33mn
Bit rate                    : 4 508 Kbps
Width                       : 1 280 pixels
Height                      : 544 pixels
Display aspect ratio        : 2.35:1
Frame rate mode             : Constant
Frame rate                  : 24.000 fps
Color space                 : YUV
Chroma subsampling          : 4:2:0
Bit depth                   : 8 bits
Scan type                   : Progressive
Bits/(Pixel*Frame)          : 0.270
Stream size                 : 2.95 GiB (81%)
Title                       : Дом Хемінґвей / Dom Hemingway / Дом Хемингуэй (2013) 720p [CINEMANIA]
Writing library             : core 135 r2345 f0c1c53
Encoding settings           : cabac=1 / ref=12 / deblock=1:-3:-3 / analyse=0x3:0x133 / me=tesa / subme=10 / psy=1 / psy_rd=1.00:0.00 / mixed_ref=1 / me_range=16 / chroma_me=1 / trellis=2 / 8x8dct=1 / cqm=0 / deadzone=21,11 / fast_pskip=0 / chroma_qp_offset=-2 / threads=12 / lookahead_threads=2 / sliced_threads=0 / nr=0 / decimate=1 / interlaced=0 / bluray_compat=0 / constrained_intra=0 / bframes=9 / b_pyramid=2 / b_adapt=2 / b_bias=0 / direct=3 / weightb=1 / open_gop=0 / weightp=2 / keyint=250 / keyint_min=24 / scenecut=40 / intra_refresh=0 / rc=crf / mbtree=0 / crf=16.3 / qcomp=0.75 / qpmin=0 / qpmax=69 / qpstep=4 / ip_ratio=1.40 / pb_ratio=1.30 / aq=1:0.65
Language                    : English
Default                     : Yes
Forced                      : No
Matrix coefficients         : BT.709
Color range                 : Limited
DURATION                    : 01:33:46.542000000
NUMBER_OF_FRAMES            : 135037
NUMBER_OF_BYTES             : 3246852177
_STATISTICS_WRITING_APP     : mkvmerge v7.4.0 ('Circles') 64bit built on Dec 12 2014 12:19:56
_STATISTICS_WRITING_DATE_UT : 2014-12-16 06:50:12
_STATISTICS_TAGS            : BPS DURATION NUMBER_OF_FRAMES NUMBER_OF_BYTES

Audio #1
ID                          : 2
Format                      : AC-3
Format/Info                 : Audio Coding 3
Mode extension              : CM (complete main)
Format settings, Endianness : Big
Codec ID                    : A_AC3
Duration                    : 1h 33mn
Bit rate mode               : Constant
Bit rate                    : 192 Kbps
Channel(s)                  : 2 channels
Channel positions           : Front: L R
Sampling rate               : 48.0 KHz
Bit depth                   : 16 bits
Compression mode            : Lossy
Stream size                 : 129 MiB (3%)
Title                       : MVO [1+1] 2.0 192 kbps [Hurtom-karvai0]
Language                    : Ukrainian
Default                     : Yes
Forced                      : No

Audio #2
ID                          : 3
Format                      :
Format/Info                 : Digital Theater Systems
Mode                        : 16
Format settings, Endianness : Big
Codec ID                    : A_DTS
Duration                    : 1h 33mn
Bit rate mode               : Constant
Bit rate                    : 768 Kbps
Channel(s)                  : 6 channels
Channel positions           : Front: L C R, Side: L R, LFE
Sampling rate               : 48.0 KHz
Bit depth                   : 24 bits
Compression mode            : Lossy
Delay relative to video     : 11ms
Stream size                 : 515 MiB (14%)
Title                       : Original
Language                    : English
Default                     : No
Forced                      : No

Text #1
ID                          : 4
Format                      : UTF-8
Codec ID                    : S_TEXT/UTF8
Codec ID/Info               : UTF-8 Plain Text
Language                    : Ukrainian
Default                     : No
Forced                      : No

Text #2
ID                          : 5
Format                      : UTF-8
Codec ID                    : S_TEXT/UTF8
Codec ID/Info               : UTF-8 Plain Text
Title                       : SDH
Language                    : English
Default                     : No
Forced                      : No

Menu
00:00:00.000                : en:00:00:00.000
00:09:03.000                : en:00:09:03.000
00:18:11.083                : en:00:18:11.083
00:25:12.000                : en:00:25:12.000
00:33:03.917                : en:00:33:03.917
00:40:41.667                : en:00:40:41.667
00:49:16.000                : en:00:49:16.000
00:57:46.167                : en:00:57:46.167
01:05:01.500                : en:01:05:01.500
01:14:03.292                : en:01:14:03.292
01:18:30.250                : en:01:18:30.250
01:24:48.958                : en:01:24:48.958





Джерела та подяки:
українська доріжка - karvai0 - зведення, OlegCena, xslim - запис з ТБ; українізований постер - Gelios (всі - Гуртом).


ЗАЛИШАЙТЕСЬ ЯКОМОГА ДОВШЕ НА РОЗДАЧІ!

СКАЧАВ САМ - ДАЙ СКАЧАТИ ІНШИМ


 Трекер:    Зареєстрований   

Завантажити / скачати фільм українською



відео для новачків



 Зареєстрований:   2014-12-16 11:00
 Розмір:   3.65 GB 
 Оцінка фільму:   4.2/10 (Голосів: 19)
   
Інші релізи
oleh19 
Частий відвідувач


З нами з: 22.06.08
Востаннє: 06.12.16
Повідомлень: 31

2014-12-21 13:30  
igor911 ,цей фільм та Рокенрольщик у мене не відтворюються на вбудованому в тел. плеєрі(2 сек.звук і все),та й програму TotalMedia Theatre 6(використовую для переглядуHD 3D фільмів) вибиває так само,таке дуже рідко трапляється з іншими фільмами.В чому причина?Простими плеєрами на компі - все нормально...
Anonymous 







2014-12-21 13:48  
Перевіряв в себе на компі, як робив - все йде, ріпи 100% сумісні з "залізними" програвачами. Можливо винен новий реліз mkvmerge v7.4.0 - щось знову начудили, запишу завтра перевірю в себе на телеку.

Додано через 1 хвилину 52 секунди:

але інші 77 людей, що скачали не скаржаться.

Додано через 1 хвилину 58 секунд:

спробуй перехешувати ці закачки в торренті - можливо щось неправильно скачалось чи бед-блоки на вінту.

oleh19 
Частий відвідувач


З нами з: 22.06.08
Востаннє: 06.12.16
Повідомлень: 31

2014-12-21 14:10  
Завантажую Посередник,хочу перевірити,також спробую перехешувати Дом і відпишу...Дякую за гарні фільми!!!

Перехешував,те ж саме...

Посередник - все добре...

Прокурор 
VIP


З нами з: 24.06.13
Востаннє: 06.12.16
Повідомлень: 343

2015-01-03 23:20  
шкода, що згаяв час на перегляд цього лайна...
Ваш часовий пояс: GMT + 2 Години

Нова тема   Відповісти