Завантажити та скачати торренти українською


Блакитна лагуна: Пробудження / Blue Lagoon: The Awakening (2012) 720p Ukr/Eng | Sub Eng

Нові коментарі

Нова тема   Відповісти
Останній раз роздавалося predators (2016-12-01)
Автор Повідомлення
tarasyk98 
Поважний учасник


З нами з: 19.12.13
Востаннє: 09.12.16
Повідомлень: 201

2014-12-15 13:13  
Блакитна лагуна: Пробудження / Blue Lagoon: The Awakening (2012) 720p Ukr/Eng | Sub Eng

Блакитна лагуна: Пробудження / Blue Lagoon: The Awakening (2012) 720p Ukr/Eng | Sub Eng


Жанр: мелодрама, романтичний, пригодницький
Країна: США



Кінокомпанія: PeaceOut Productions, Silver Screen Pictures, Sony Pictures Television
Режисер: Джейк Ньюсам, Мікаель Селомон
Актори: Індіана Еванс, Брентон Туейтес, Деніз Річардс, Френк Джон Хьюз, Патрік Ст. Еспріт, Алікс Гіттер, Хейлі Кійоко, Аймі карєрі, Джейкоб Артист

Сюжет:
У фокусі сюжетної лінії двоє підлітків Емма і Дін, які опинилися на безлюдному острові в Карибському морі. Під час морської прогулянки Емма впала за борт корабля, і тільки Дін побачив це і стрибнув за нею в море. Проходять тижні і молоді люди закохуються, дізнаються багато чого про один одного, а також пізнають себе.


Тривалість: 01:28:56
Якість: 720p
Відео:
кодек:
розмір кадру: 1280х718
бітрейт: 4007 кб/с

Аудіо # 1:
мова: українська
переклад: багатоголосий закадровий
кодек: 2.0
бітрейт: 192 кб/с

Аудіо # 2:
мова: англійська
переклад: оригінал
кодек: 5.1
бітрейт: 384 кб/с

Джерело озвучення:


Субтитри:
мова: англійська
тип: програмні (м'які)
формат: *.srt
MediaInfo
General
Unique ID : 250697615935605279601733201904776493016 (0xBC9A9AC3E63DA5BC88F6974B99FBB7D8)
Complete name : D:\Відео\Blue Lagoon. The Awakening (2012) 720p [Hurtom].mkv
Format : Matroska
Format version : Version 4 / Version 2
File size : 2.91 GiB
Duration : 1h 28mn
Overall bit rate : 4 676 Kbps
Encoded date : UTC 2014-12-15 10:35:00
Writing application : mkvmerge v7.1.0 ('Good Love') 64bit built on Jul 27 2014 13:06:55
Writing library : libebml v1.3.0 + libmatroska v1.4.1
_STATISTICS_WRITING_APP : mkvmerge v7.1.0 ('Good Love') 64bit built on Jul 27 2014 13:06:55
_STATISTICS_WRITING_DATE_UT : 2014-12-15 10:35:00
_STATISTICS_TAGS : BPS DURATION NUMBER_OF_FRAMES NUMBER_OF_BYTES
DURATION : 01:28:02.376000000
NUMBER_OF_FRAMES : 1360
NUMBER_OF_BYTES : 41467

Video
ID : 1
Format : AVC
Format/Info : Advanced Video Codec
Format profile : [email protected]
Format settings, CABAC : No
Format settings, ReFrames : 2 frames
Codec ID : V_MPEG4/ISO/AVC
Duration : 1h 28mn
Bit rate : 4 007 Kbps
Width : 1 280 pixels
Height : 718 pixels
Display aspect ratio : 16:9
Frame rate mode : Constant
Frame rate : 23.976 fps
Color space : YUV
Chroma subsampling : 4:2:0
Bit depth : 8 bits
Scan type : Progressive
Bits/(Pixel*Frame) : 0.182
Stream size : 2.49 GiB (86%)
Language : Ukrainian
Default : Yes
Forced : Yes
Color primaries : BT.709
Transfer characteristics : BT.709
Matrix coefficients : BT.709
Color range : Limited

Audio #1
ID : 2
Format : AC-3
Format/Info : Audio Coding 3
Mode extension : CM (complete main)
Format settings, Endianness : Big
Codec ID : A_AC3
Duration : 1h 28mn
Bit rate mode : Constant
Bit rate : 192 Kbps
Channel(s) : 2 channels
Channel positions : Front: L R
Sampling rate : 48.0 KHz
Bit depth : 16 bits
Compression mode : Lossy
Stream size : 122 MiB (4%)
Language : Ukrainian
Default : Yes
Forced : Yes

Audio #2
ID : 4
Format : AC-3
Format/Info : Audio Coding 3
Mode extension : CM (complete main)
Format settings, Endianness : Big
Codec ID : A_AC3
Duration : 1h 28mn
Bit rate mode : Constant
Bit rate : 384 Kbps
Channel(s) : 6 channels
Channel positions : Front: L C R, Side: L R, LFE
Sampling rate : 48.0 KHz
Bit depth : 16 bits
Compression mode : Lossy
Stream size : 244 MiB (8%)
Language : English
Default : No
Forced : No

Text
ID : 3
Format : UTF-8
Codec ID : S_TEXT/UTF8
Codec ID/Info : UTF-8 Plain Text
Language : English
Default : No
Forced : No
Скріншоти







Джерело: &
Особиста оцінка: 8 - мені сподобалося


 Трекер:    Зареєстрований   

Завантажити / скачати фільм українською



відео для новачків



 Зареєстрований:   2014-12-15 13:13
 Розмір:   2.91 GB 
 Оцінка фільму:   9.5/10 (Голосів: 6)
   
Інші релізи
-_-B_E_N_D_E_R-_- 
Оцифрування книг Гуртом
Оцифрування книг Гуртом


З нами з: 09.01.14
Востаннє: 07.12.16
Повідомлень: 125

2014-12-15 20:10  
Нічого цікавого в цім фільмі немає
Seriy100293 
VIP


З нами з: 17.08.11
Востаннє: 04.09.16
Повідомлень: 307

2014-12-15 20:21  
Я погоджуся з попереднім повідомленням
Ваш часовий пояс: GMT + 2 Години

Нова тема   Відповісти