Завантажити та скачати торренти українською


Марія Бурмака - Тінь по воді (2014) [FLAC] | Pop

Нові коментарі

Нова тема   Відповісти
Автор Повідомлення
kurmunke 
Свій


З нами з: 06.11.13
Востаннє: 08.12.16
Повідомлень: 60

2014-12-13 04:02  
Марія Бурмака - Тінь по воді (2014) [FLAC] | Pop

Марія Бурмака - Тінь по воді (2014) [FLAC] | Pop


Стиль: Pop
Країна, місто: Україна, Харків
Сайти: Офіційний сайт
Видавець: автор
Пісні:
    1. Не забувається любов 3:34
    2. Тінь по воді 3:35
    3. Він іде по воді 2:39
    4. Прочитай мої слова по губах (feat Shopping Hour band) 3:37
    5. Ти... (Краплі) 3:53
    6. Хранителі надії 3:20
    7. Все починається, коли 3:20
    8. Радіохвилі 3:06
    9. Магія трав 4:29
    10. Називала іменем сон 3:16
    11. Новорічні сни 3:23
    12. Я залишусь 3:25
    13. Не забувається любов (Kofein version) 3:14
    Бонус:
    14. Гей на горі, на Маківці (українська народна пісня)
    15. Їхали козаки... (українська народна пісня)
    16. Цвіте терен (українська народна пісня)
    17. Ой на горі та й женці жнуть (українська народна пісня)

Тривалість: 01:00:07
Мова: українська
Аудіо-кодек: FLAC
Бітрейт: 936 кб/с
Джерело: Власний диск
Додаткова інформація:
«Тінь по воді» — дванадцятий студійний альбом української співачки Марії Бурмаки (2014).

Ця платівка є довгоочікуваною як для самої виконавиці, так і для прихильників її творчості. Адже останній за часом виходу альбом «Саундтреки» вийшов ще 2008-го року. Зрештою, над платівкою «Тінь по воді» Марія Бурмака працювала близько шести років. За цей час змінювався і склад музикантів, і студії звукозапису... При цьому найбільш продуктивним у роботі виявився період з кінця 2013 року до початку 2014-го, що за часом якраз збігся з революційними подіями в Україні. Активна громадянська позиція артистки позначилася і на її творчості, зокрема — на появі нових пісень і набутті нового зміст вже призабутими (наприклад, «Він іде по воді»).

Альбом «Тінь по воді» було презентовано у День народження Марії Бурмаки – 16 червня – під час її «живого» концерту у київському клубі «Sentrum». Тоді ж Марія представила на суд публіки і новий відеокліп на баладу «Місто ангелів» із альбому «№ 9» 2004-го року.

Кожна пісня альбому «Тінь по воді» — це історія, яку пережила Марія, і слухачі «Тіней по воді» впізнають у цій музиці себе. Створити її допомогли багато чудових музикантів. Запис і мастеринг зробили «Kofein studio», «Аркадія», «На Хаті Рекордз», звукорежисери Олег Татарчук, Олексій Дрозд, Дмитро Іванєй і Аркадій Віхорєв. Пісня «Прочитай мої слова по губах» записана за участю Shopping Hour band, автор музики «Хранителі надії» − Таня Ша. Також ви знайдете на альбомі версію пісні «Не забувається любов» від студії Kofein і пісню «Він іде по воді», присвячену героям. Загалом, альбом наповнює 17 треків, останні чотири з яких є авторськими кавер-версіями українських народних пісень.

Марія Бурмака про альбом «Тінь по воді»:
"Альбом «Тінь по воді» — це місяці, дні і години мого життя. Я не записувала альбом, я просто жила. Любила, розставалася, страждала, боролася за правду, сумнівалася, залишалася вірною собі, помилялася. Зустрічала нових людей, проводжала із вдячністю кожен день і з надією зустрічала новий. І писала пісні про це. Тому і пісні виходили різні: про любов і пристрасть, про жагу до життя, про боротьбу за свободу. І останній рік, на жаль, про війну… Ми пережили зиму, переживаємо весну разом, ми не знаємо що буде попереду. І остання пісня альбому, яка дала йому назву, якраз про це: «Тінь по воді — відлуння зими... Тінь по воді, мов серед війни... Тінь по воді і тільки із ним... Світло мені, спокійно мені"
.log
Exact Audio Copy V1.0 beta 3 from 29. August 2011

EAC extraction logfile from 13. December 2014, 3:42

Марія Бурмака / Тінь по воді

Used drive : TSSTcorpCDDVDW SH-222AB Adapter: 0 ID: 3

Read mode : Secure
Utilize accurate stream : Yes
Defeat audio cache : Yes
Make use of C2 pointers : No

Read offset correction : 6
Overread into Lead-In and Lead-Out : No
Fill up missing offset samples with silence : Yes
Delete leading and trailing silent blocks : No
Null samples used in CRC calculations : Yes
Used interface : Native Win32 interface for Win NT & 2000

Used output format : User Defined Encoder
Selected bitrate : 1024 kBit/s
Quality : High
Add ID3 tag : No
Command line compressor : C:\Program Files (x86)\Exact Audio Copy\Flac\flac.exe
Additional command line options : -8 -V %source%

TOC of the extracted CD

Track | Start | Length | Start sector | End sector
---------------------------------------------------------
1 | 0:00.00 | 3:37.38 | 0 | 16312
2 | 3:37.38 | 3:38.38 | 16313 | 32700
3 | 7:16.01 | 2:42.25 | 32701 | 44875
4 | 9:58.26 | 3:40.38 | 44876 | 61413
5 | 13:38.64 | 3:55.19 | 61414 | 79057
6 | 17:34.08 | 3:24.38 | 79058 | 94395
7 | 20:58.46 | 3:09.38 | 94396 | 108608
8 | 24:08.09 | 3:24.00 | 108609 | 123908
9 | 27:32.09 | 4:35.38 | 123909 | 144571
10 | 32:07.47 | 3:19.66 | 144572 | 159562
11 | 35:27.38 | 3:27.38 | 159563 | 175125
12 | 38:55.01 | 3:29.20 | 175126 | 190820
13 | 42:24.21 | 3:16.74 | 190821 | 205594
14 | 45:41.20 | 3:07.19 | 205595 | 219638
15 | 48:48.39 | 4:01.38 | 219639 | 237751
16 | 52:50.02 | 3:54.00 | 237752 | 255301
17 | 56:44.02 | 3:27.19 | 255302 | 270845

Range status and errors

Selected range

Filename M:\Музика\FLAC\Марія Бурмака - Тінь по воді.wav

Peak level 100.0 %
Extraction speed 7.7 X
Range quality 100.0 %
Copy CRC CC822AA3
Copy OK

No errors occurred

End of status report


Якщо Ви справді бажаєте підтримати українське - після прослуховування, якщо музика вам сподобалась, придбайте ліцензійний диск. Підтримаймо вітчизняних виконавців!


Придбати альбом можна:
CD диск (digi-pack)


Срібний реліз (на рейтинг впливає 50% завантаженого)
 Трекер:    Зареєстрований   

Завантажити / скачати українську музику



відео для новачків



 Зареєстрований:   2014-12-16 04:22
 Розмір:   406 MB 
 Оцінка музики:   10/10 (Голосів: 7)
   
kurmunke 
Свій


З нами з: 06.11.13
Востаннє: 08.12.16
Повідомлень: 60

2014-12-16 04:22  
В релізі були переплутані назви 7го і 8го треків, назву виправив, тому прохання завантажити торент файл заново. Заново потрібно завантажити лише файл "Марія Бурмака - Тінь по воді.cue" розміром ~3кб
Ваш часовий пояс: GMT + 2 Години

Нова тема   Відповісти