Завантажити та скачати торренти українською


Робін Гуд - принц злодіїв (Розширена версія) / Robin Hood: Prince of Thieves (Extended version) (1991) 720p Ukr/Eng | Sub Eng

Нові коментарі

Нова тема   Відповісти
Автор Повідомлення
Anonymous 







2014-12-12 21:50  
Робін Гуд - принц злодіїв (Розширена версія) / Robin Hood: Prince of Thieves (Extended version) (1991) 720p Ukr/Eng | Sub Eng



Жанр: бойовик, драма, пригодницький
Країна: США



Кінокомпанія: Warner Bros., Morgan Creek Productions
Режисер: Кевін Рейнолдс / Kevin Reynolds
Актори: Кевін Костнер / Kevin Costner, Морґан Фрімен / Morgan Freeman, Мері Елізабет Мастрантоніо / Mary Elizabeth Mastrantonio, Крістіан Слейтер / Christian Slater, Елан Рікмен / Alan Rickman, Джералдін МакЮен / Geraldine McEwan, Майкл МакШейн / Michael McShane та інші

Сюжет:
Небагато воїнів повернулось з Хрестового походу. Робіну з Локслі, щоб уникнути загибелі в ув'язненні у невірних, довелося скористатися допомогою одного з в'язнів-мусульман: релігійних ворогів згуртувало загальне нещастя. Але ще більша небезпека чекає героя з боку єдиновірців: англійський трон захоплений самозванцем!

Тільки зелений ліс, тільки готові на все відчайдушні друзі, тільки віра в свою правоту допоможуть Робіну вистояти у нерівній боротьбі. А його вороги змушені здригатися від зловісного свисту влучних стріл Робіна Гуда.


Рейтинг MPAA: PG-13 - дітям до 13 років перегляд не бажаний
Вікова категорія: 12+

Тривалість: 02:35:03 - розширена версія довша на 12 хв. за театральну - відмінності
Якість: 720p
Відео:
кодек:
розмір кадру: 1280x720
бітрейт: 7459 кбіт/с

Аудіо #1:
мова: українська
переклад: багатоголосий закадровий
ролі озвучили: Кевін Костнер — Олег Лепенець, Морґан Фрімен — Михайло Жонін і Ольга Радчук
кодек: 5.1
бітрейт: 384 кб/с

Аудіо # 2:
мова: англійська
переклад: оригінал
кодек: 5.1
бітрейт: 640 кбіт/с

Субтитри #1:
мова: українська (форсовані, на неозвучені фрази розширеної версії)
тип: програмні (м'які)
формат: *.srt

Субтитри #2:
мова: англійська
тип: програмні (м'які)
формат: *.srt

Збережено оригінальні розділи, як на Blu-ray.
MediaInfo
Код:
General
Unique ID                   : 205854820689081237356314039469053343740 (0x9ADE3243161BE479A045C3DCF09077FC)
Complete name               : Robin Hood. Prince Of Thieves [Extended] (1991) [Ukr,Eng sub.Eng] 720p [Hurtom].mkv
Format                      : Matroska
Format version              : Version 4 / Version 2
File size                   : 9.19 GiB
Duration                    : 2h 35mn
Overall bit rate            : 8 483 Kbps
Movie name                  : Робін Гуд - принц злодіїв / Robin Hood: Prince of Thieves (1991) [Extended Version] 720p
Encoded date                : UTC 2014-12-12 14:06:43
Writing application         : mkvmerge v7.3.0 ('Nouages') 64bit built on Oct 22 2014 18:53:34
Writing library             : libebml v1.3.0 + libmatroska v1.4.1
DURATION                    : 02:32:17.252000000
NUMBER_OF_FRAMES            : 1535
NUMBER_OF_BYTES             : 49818
_STATISTICS_WRITING_APP     : mkvmerge v7.3.0 ('Nouages') 64bit built on Oct 22 2014 18:53:34
_STATISTICS_WRITING_DATE_UT : 2014-12-12 14:06:43
_STATISTICS_TAGS            : BPS DURATION NUMBER_OF_FRAMES NUMBER_OF_BYTES

Video
ID                          : 1
Format                      : AVC
Format/Info                 : Advanced Video Codec
Format profile              : [email protected]
Format settings, CABAC      : Yes
Format settings, ReFrames   : 8 frames
Codec ID                    : V_MPEG4/ISO/AVC
Duration                    : 2h 35mn
Bit rate                    : 7 459 Kbps
Width                       : 1 280 pixels
Height                      : 720 pixels
Display aspect ratio        : 16:9
Frame rate mode             : Constant
Frame rate                  : 23.976 fps
Color space                 : YUV
Chroma subsampling          : 4:2:0
Bit depth                   : 8 bits
Scan type                   : Progressive
Bits/(Pixel*Frame)          : 0.338
Stream size                 : 7.90 GiB (86%)
Title                       : Робін Гуд - принц злодіїв / Robin Hood: Prince of Thieves / Робин Гуд: Принц Воров (1991) [Extended Version] 720p [Trottor]
Writing library             : core 133 r2334 a3ac64b
Encoding settings           : cabac=1 / ref=8 / deblock=1:-3:-3 / analyse=0x3:0x113 / me=umh / subme=10 / psy=1 / psy_rd=1.00:0.20 / mixed_ref=1 / me_range=32 / chroma_me=1 / trellis=2 / 8x8dct=1 / cqm=0 / deadzone=21,11 / fast_pskip=0 / chroma_qp_offset=-3 / threads=12 / lookahead_threads=1 / sliced_threads=0 / nr=0 / decimate=0 / interlaced=0 / bluray_compat=0 / constrained_intra=0 / bframes=6 / b_pyramid=2 / b_adapt=2 / b_bias=0 / direct=3 / weightb=1 / open_gop=0 / weightp=2 / keyint=240 / keyint_min=23 / scenecut=40 / intra_refresh=0 / rc_lookahead=40 / rc=2pass / mbtree=0 / bitrate=7459 / ratetol=1.0 / qcomp=0.60 / qpmin=0 / qpmax=69 / qpstep=4 / cplxblur=20.0 / qblur=0.5 / vbv_maxrate=50000 / vbv_bufsize=62500 / nal_hrd=none / ip_ratio=1.40 / pb_ratio=1.30 / aq=1:1.00
Language                    : English
Default                     : Yes
Forced                      : No
DURATION                    : 02:35:03.920000000
NUMBER_OF_FRAMES            : 223071
NUMBER_OF_BYTES             : 8671764315
_STATISTICS_WRITING_APP     : mkvmerge v7.3.0 ('Nouages') 64bit built on Oct 22 2014 18:53:34
_STATISTICS_WRITING_DATE_UT : 2014-12-12 14:06:43
_STATISTICS_TAGS            : BPS DURATION NUMBER_OF_FRAMES NUMBER_OF_BYTES

Audio #1
ID                          : 2
Format                      : AC-3
Format/Info                 : Audio Coding 3
Mode extension              : CM (complete main)
Format settings, Endianness : Big
Codec ID                    : A_AC3
Duration                    : 2h 35mn
Bit rate mode               : Constant
Bit rate                    : 384 Kbps
Channel(s)                  : 6 channels
Channel positions           : Front: L C R, Side: L R, LFE
Sampling rate               : 48.0 KHz
Bit depth                   : 16 bits
Compression mode            : Lossy
Stream size                 : 426 MiB (5%)
Title                       : MVO [ICTV] 5.1 384 kbps [Hurtom-_oles,Technomate]
Language                    : Ukrainian
Default                     : Yes
Forced                      : No

Audio #2
ID                          : 3
Format                      : AC-3
Format/Info                 : Audio Coding 3
Mode extension              : CM (complete main)
Format settings, Endianness : Big
Codec ID                    : A_AC3
Duration                    : 2h 35mn
Bit rate mode               : Constant
Bit rate                    : 640 Kbps
Channel(s)                  : 6 channels
Channel positions           : Front: L C R, Side: L R, LFE
Sampling rate               : 48.0 KHz
Bit depth                   : 16 bits
Compression mode            : Lossy
Stream size                 : 710 MiB (8%)
Title                       : Original 5.1 640 kbps
Language                    : English
Default                     : No
Forced                      : No

Text #1
ID                          : 4
Format                      : UTF-8
Codec ID                    : S_TEXT/UTF8
Codec ID/Info               : UTF-8 Plain Text
Title                       : Ukr Forced [на неперекладені фрагменти]
Language                    : Ukrainian
Default                     : Yes
Forced                      : No

Text #2
ID                          : 5
Format                      : UTF-8
Codec ID                    : S_TEXT/UTF8
Codec ID/Info               : UTF-8 Plain Text
Title                       : Eng full
Language                    : English
Default                     : No
Forced                      : No

Menu
00:00:00.000                : en:Credits
00:02:19.681                : en:English Courage
00:05:57.774                : en:Our Way Lies Together
00:08:16.954                : en:Locksley Tragedy
00:10:59.659                : en:Home
00:15:35.559                : en:Gisborne's Welcome
00:20:08.290                : en:Murderous Portents
00:23:47.134                : en:World Upside Down
00:27:07.417                : en:Marian's Welcome
00:31:15.748                : en:Getting Reacquainted
00:34:46.084                : en:Cross-Country Flight
00:37:32.041                : en:The Forest Has Eyes
00:41:24.732                : en:Quarterstaff Duel
00:44:35.506                : en:Outlaw Campfire
00:47:40.566                : en:Sunday Worship
00:50:58.764                : en:Visiting the Bishop
00:56:04.861                : en:Planning to Lead
00:58:17.035                : en:One True Weapon
01:02:18.735                : en:Call Off Christmas
01:07:56.697                : en:Feisty Friar
01:14:22.332                : en:Gisborne Penalized
01:16:17.197                : en:Glimpse of Robin
01:18:49.307                : en:Distractions; Camp Tour
01:22:39.621                : en:Salt of the Earth
01:25:47.433                : en:Medical Emergency
01:29:40.958                : en:"I'll Do It for You."
01:32:10.525                : en:Undelivered Message
01:34:41.676                : en:In His Palm
01:37:30.511                : en:Marian Abducted
01:40:27.062                : en:Overrun By Celts
01:43:45.385                : en:Fiery Assault
01:47:24.646                : en:The Sheriff's Proposal
01:52:12.183                : en:Will's Bargain
01:54:24.357                : en:Finish What's Been Started
01:59:35.835                : en:Hole in the Wall
02:01:52.346                : en:"You Are Me."
02:04:26.417                : en:Battle Positions
02:08:23.654                : en:Will Exposed
02:12:02.122                : en:Cheating the Hangman
02:16:21.214                : en:Storming the Castle
02:18:29.384                : en:Martial Mayhem
02:21:34.652                : en:Dropping In
02:23:26.723                : en:Final Duel
02:27:00.520                : en:Vow Fulfilled
02:28:11.173                : en:Royal Guest
02:30:23.180                : en:End Credits




Джерела та подяки: &
ріп відео, оригінальні звук та субтитри - Trottor (кінозал); українська доріжка - _oles - зведення, Technomate - запис з ТБ; українізований постер - grytzz; фільмографії акторів та інформація про озвучення - Віктор (всі - Гуртом).


ЗАЛИШАЙТЕСЬ ЯКОМОГА ДОВШЕ НА РОЗДАЧІ!

СКАЧАВ САМ - ДАЙ СКАЧАТИ ІНШИМ


Срібний реліз (на рейтинг впливає 50% завантаженого)
 Трекер:    Зареєстрований   

Завантажити / скачати фільм українською



відео для новачків



 Зареєстрований:   2014-12-12 21:50
 Розмір:   9.19 GB 
 Оцінка фільму:   4.4/10 (Голосів: 16)
   
krabapka 
Новенький


З нами з: 15.08.15
Востаннє: 01.12.16
Повідомлень: 1

2016-03-09 16:29  
Найкращий у цьому фільмі - Алан Рікман. Він єдиний рятує фільм. Все інше - нудота нуднюща)) Просто нереально.
До речі, після допрем*єрного показу цього фільму було вирішено прибрати декотрі епізоди з Шерифом (Рікман), бо він затуляв Костнера. Отже, Рікман - супер, Костнер - фуфло.

Ваш часовий пояс: GMT + 2 Години

Нова тема   Відповісти