Завантажити та скачати торренти українською


Ханна Монтана / Hannah Montana: The Movie (2009) 720p Ukr/Eng | Sub Eng

Нові коментарі

Нова тема   Відповісти
Автор Повідомлення
Anonymous 







2014-12-11 22:50  
Ханна Монтана / Hannah Montana: The Movie (2009) 720p Ukr/Eng | Sub Eng



Жанр: драма, мелодрама, комедія, сімейний, музичний
Країна: США



Кінокомпанія: It's a Laugh Productions, Millar Gough Ink, Walt Disney Pictures
Режисер: Пітер Челсом / Peter Chelsom
Актори: Майлі Сайрус (Miley Cyrus), Біллі Рей Сайрос / Billy Ray Cyrus, Емілі Осмент / Emily Osment, Джейсон Ерл / Jason Earles, Мітчел Муссо / Mitchel Musso, Моісес Аріас / Moises Arias, Лукас Тілл / Lucas Till, Ванесса Вільямс / Vanessa Williams, Марго Мартіндейл / Margo Martindale, Пітер Ґунн / Peter Gunn, Мелор Хардін / Melora Hardin, Джаред Картер / Jared Carter, Беррі Боствік / Barry Bostwick, Бо Біллінґслі / Beau Billingslea, Катріна Сміт / Katrina Smith

Сюжет:
Коли популярність Ханни Монтани бере верх над життям Майлі Стюарт, її батько приймає рішення зробити поїздку в її рідне місто Тенессі, щоб зрозуміти яка перспектива має більше значення в житті Майлі.


Тривалість: 01:42:20
Якість: 720p
Відео:
кодек:
розмір кадру: 1280 х 688
бітрейт: 4610 кбіт/с

Аудіо # 1:
мова: українська
переклад: двоголосий закадровий
ролі озвучили: Дмитро Завадський та Юлія Перенчук
кодек: 2.0
бітрейт: 192 кбіт/с

Аудіо # 2:
мова: англійська
переклад: оригінал
кодек: 5.1
бітрейт: 1509 кбіт/с

Субтитри:
мова: англійська
тип: програмні (м'які)
формат: *.srt
MediaInfo
Код:
General
Unique ID                   : 241822365202447616886049123843529986277 (0xB5ED4B1EA91E95809A1045E98FB350E5)
Complete name               : Hannah Montana. The Movie (2009) [Ukr,Eng sub.Eng] 720p [Hurtom].mkv
Format                      : Matroska
Format version              : Version 4 / Version 2
File size                   : 4.51 GiB
Duration                    : 1h 42mn
Overall bit rate            : 6 314 Kbps
Movie name                  : Ханна Монтана / Hannah Montana: The Movie (2009) 720p Ukr/Eng | Sub Eng [Hurtom]
Encoded date                : UTC 2014-12-10 10:28:40
Writing application         : mkvmerge v7.3.0 ('Nouages') 64bit built on Oct 22 2014 18:53:34
Writing library             : libebml v1.3.0 + libmatroska v1.4.1
DURATION                    : 01:42:20.128000000
NUMBER_OF_FRAMES            : 191879
NUMBER_OF_BYTES             : 147363072
_STATISTICS_WRITING_APP     : mkvmerge v7.3.0 ('Nouages') 64bit built on Oct 22 2014 18:53:34
_STATISTICS_WRITING_DATE_UT : 2014-12-10 10:28:40
_STATISTICS_TAGS            : BPS DURATION NUMBER_OF_FRAMES NUMBER_OF_BYTES

Video
ID                          : 1
Format                      : AVC
Format/Info                 : Advanced Video Codec
Format profile              : [email protected]
Format settings, CABAC      : Yes
Format settings, ReFrames   : 5 frames
Codec ID                    : V_MPEG4/ISO/AVC
Duration                    : 1h 42mn
Bit rate                    : 4 610 Kbps
Width                       : 1 280 pixels
Height                      : 688 pixels
Display aspect ratio        : 1.85:1
Frame rate mode             : Constant
Frame rate                  : 23.976 fps
Color space                 : YUV
Chroma subsampling          : 4:2:0
Bit depth                   : 8 bits
Scan type                   : Progressive
Bits/(Pixel*Frame)          : 0.218
Stream size                 : 3.21 GiB (71%)
Title                       : Ханна Монтана / Hannah Montana: The Movie (2009) 720p [iNFAMOUS]
Writing library             : core 67 r1173M f6d3166
Encoding settings           : cabac=1 / ref=5 / deblock=1:0:0 / analyse=0x3:0x133 / me=umh / subme=7 / psy_rd=1.0:0.0 / mixed_ref=1 / me_range=16 / chroma_me=1 / trellis=1 / 8x8dct=1 / cqm=0 / deadzone=21,11 / chroma_qp_offset=-2 / threads=12 / nr=0 / decimate=1 / mbaff=0 / bframes=3 / b_pyramid=1 / b_adapt=1 / b_bias=0 / direct=1 / wpredb=1 / keyint=250 / keyint_min=25 / scenecut=40 / rc=2pass / bitrate=4610 / ratetol=1.0 / qcomp=0.60 / qpmin=10 / qpmax=51 / qpstep=4 / cplxblur=20.0 / qblur=0.5 / ip_ratio=1.40 / pb_ratio=1.30 / aq=1:1.00
Language                    : English
Default                     : Yes
Forced                      : No

Audio #1
ID                          : 2
Format                      : AC-3
Format/Info                 : Audio Coding 3
Mode extension              : CM (complete main)
Format settings, Endianness : Big
Codec ID                    : A_AC3
Duration                    : 1h 42mn
Bit rate mode               : Constant
Bit rate                    : 192 Kbps
Channel(s)                  : 2 channels
Channel positions           : Front: L R
Sampling rate               : 48.0 KHz
Bit depth                   : 16 bits
Compression mode            : Lossy
Stream size                 : 141 MiB (3%)
Title                       : DVO [1+1] 2.0 192 kbps [Hurtom-karvai0]
Language                    : Ukrainian
Default                     : Yes
Forced                      : No

Audio #2
ID                          : 3
Format                      :
Format/Info                 : Digital Theater Systems
Mode                        : 16
Format settings, Endianness : Big
Codec ID                    : A_DTS
Duration                    : 1h 42mn
Bit rate mode               : Constant
Bit rate                    : 1 509 Kbps
Channel(s)                  : 6 channels
Channel positions           : Front: L C R, Side: L R, LFE
Sampling rate               : 48.0 KHz
Bit depth                   : 16 bits
Compression mode            : Lossy
Stream size                 : 1.08 GiB (24%)
Title                       : Original 5.1 1509 kbps
Language                    : English
Default                     : No
Forced                      : No

Text
ID                          : 4
Format                      : UTF-8
Codec ID                    : S_TEXT/UTF8
Codec ID/Info               : UTF-8 Plain Text
Language                    : English
Default                     : No
Forced                      : No




Джерела та подяки: &
ріп відео, оригінальні звук та субтитри - iNFAMOUS; українська доріжка - karvai0; українізований постер - Gelios; фільмографії акторів та інформація про озвучення - Віктор (всі - Гуртом).


ЗАЛИШАЙТЕСЬ ЯКОМОГА ДОВШЕ НА РОЗДАЧІ!

СКАЧАВ САМ - ДАЙ СКАЧАТИ ІНШИМ


 Трекер:    Зареєстрований   

Завантажити / скачати фільм українською



відео для новачків



 Зареєстрований:   2014-12-11 22:50
 Розмір:   4.51 GB 
 Оцінка фільму:   4.4/10 (Голосів: 17)
   
Інші релізи
Ваш часовий пояс: GMT + 2 Години

Нова тема   Відповісти