Завантажити та скачати торренти українською


Холостяцька вечірка / Bachelor Party (1984) 720p 2хUkr/Eng | Sub Eng

Нові коментарі

Нова тема   Відповісти
Автор Повідомлення
Anonymous 







2014-12-11 13:32  
Холостяцька вечірка / Bachelor Party (1984) 720p 2хUkr/Eng | Sub Eng


Жанр: мелодрама, комедія
Країна: США



Кінокомпанія: Bachelor Party Productions, Aspect Ratio Film, Twin Continental, 20th Century Fox
Режисер: Ніл Ізраель / Neal Israel
Актори: Том Генкс / Tom Hanks, Тоні Кітен / Tawny Kitaen, Адріан Змед / Adrian Zmed, Джордж Ґріззард / George Grizzard, Барбара Стюарт / Barbara Stuart, Роберт Прескотт / Robert Prescott, Вільям Теппер / William Tepper, Венді Джо Спербер / Wendie Jo Sperber, Баррі Даймонд / Barry Diamond, Гарі Гроссман / Gary Grossman, Майкл Дудікофф / Michael Dudikoff та інші

Сюжет:
В останній день перед весіллям водій шкільного автобуса Рік вирішує зібрати всіх друзів на останню шалену вечірку за принципом "пива і жінок багато не буває". Його наречена Деббі бере ситуацію під особистий контроль і очолює загін вірних подружок, що прямують на парубочі вечорниці.

Влаштувавши пастку повіям, яких замовлено для Ріка, подружки переодягаються й проходять до будівлі, де відбувається вечірка. Тим часом багатий батько Деббі, незадоволений тим, що дочка виходить заміж за невдаху, нацьковує на всю компанію колишнього коханого Деббі з метою повернути дочку за всяку ціну.

Рік доблесно опанує ситуацію - відмінно погуляє, не осоромиться перед друзями та ще й при цьому збереже вірність своїй нареченій.


Рейтинг MPAA: R - особам до 17 років обов'язкова присутність батьків або дорослого опікуна
Вікова категорія: 16+

Тривалість: 01:45:29
Якість: 720p
Відео:
кодек:
розмір кадру: 1280 x 694
бітрейт: 9500 кбіт/с

Аудіо # 1:
мова: українська
переклад: двоголосий закадровий
ролі озвучили: Євген Пашин та Тетяна Антонова
кодек: 2.0
бітрейт: 192 кб/с

Аудіо # 2:
мова: українська - Новий Канал
переклад: двоголосий закадровий
ролі озвучили: Євген Пашин та Олена Узлюк
кодек: 2.0
бітрейт: 192 кб/с

Аудіо # 3:
мова: англійська
переклад: оригінал
кодек: 1.0 (моно)
бітрейт: 192 кб/с

Субтитри:
мова: англійська
тип: програмні (м'які)
формат: *.srt

Збережено оригінальні розділи, як на Blu-ray.
MediaInfo
Код:
General
Unique ID                   : 191688100276342113786264801051911695888 (0x9035C904DD8EDCFAA370B986C700AE10)
Complete name               : Bachelor Party (1984) [2xUkr,Eng sub.Eng] 720p [Hurtom].mkv
Format                      : Matroska
Format version              : Version 4 / Version 2
File size                   : 7.42 GiB
Duration                    : 1h 45mn
Overall bit rate            : 10.1 Mbps
Movie name                  : Холостяцька вечірка / Bachelor Party / Мальчишник (1984) 720p [Hurtom]
Encoded date                : UTC 2014-12-11 01:38:19
Writing application         : mkvmerge v7.3.0 ('Nouages') 64bit built on Oct 22 2014 18:53:34
Writing library             : libebml v1.3.0 + libmatroska v1.4.1
DURATION                    : 01:45:28.608000000
NUMBER_OF_FRAMES            : 197769
NUMBER_OF_BYTES             : 151886592
_STATISTICS_WRITING_APP     : mkvmerge v7.3.0 ('Nouages') 64bit built on Oct 22 2014 18:53:34
_STATISTICS_WRITING_DATE_UT : 2014-12-11 01:38:19
_STATISTICS_TAGS            : BPS DURATION NUMBER_OF_FRAMES NUMBER_OF_BYTES

Video
ID                          : 1
Format                      : AVC
Format/Info                 : Advanced Video Codec
Format profile              : [email protected]
Format settings, CABAC      : Yes
Format settings, ReFrames   : 9 frames
Codec ID                    : V_MPEG4/ISO/AVC
Duration                    : 1h 45mn
Bit rate                    : 9 500 Kbps
Width                       : 1 280 pixels
Height                      : 694 pixels
Display aspect ratio        : 1.85:1
Frame rate mode             : Constant
Frame rate                  : 23.976 fps
Color space                 : YUV
Chroma subsampling          : 4:2:0
Bit depth                   : 8 bits
Scan type                   : Progressive
Bits/(Pixel*Frame)          : 0.446
Stream size                 : 6.85 GiB (92%)
Title                       : Холостяцька вечірка / Bachelor Party / Мальчишник (1984) 720p [MediaClub-kaspr]
Writing library             : core 142 r2431+42 c69a006 tMod [[email protected]:2:0 X86_64]
Encoding settings           : cabac=1 / ref=9 / deblock=1:-3:-3 / analyse=0x3:0x113 / me=umh / subme=11 / psy=1 / fade_compensate=0.00 / psy_rd=1.00:0.00 / mixed_ref=1 / me_range=32 / chroma_me=1 / trellis=2 / 8x8dct=1 / cqm=0 / deadzone=21,11 / fast_pskip=0 / chroma_qp_offset=-2 / threads=12 / lookahead_threads=3 / sliced_threads=0 / nr=0 / decimate=0 / interlaced=0 / bluray_compat=0 / constrained_intra=0 / fgo=0 / bframes=12 / b_pyramid=2 / b_adapt=2 / b_bias=0 / direct=3 / weightb=1 / open_gop=0 / weightp=2 / keyint=240 / keyint_min=23 / scenecut=40 / intra_refresh=0 / rc=2pass / mbtree=0 / bitrate=9500 / ratetol=1.0 / qcomp=0.60 / qpmin=0:0:0 / qpmax=69:69:69 / qpstep=4 / cplxblur=20.0 / qblur=0.5 / ip_ratio=1.40 / pb_ratio=1.30 / aq=4:0.80 / aq-sensitivity=10.00 / aq-factor=1.00:1.00:1.00 / aq2=0 / aq3=0
Language                    : English
Default                     : Yes
Forced                      : No
DURATION                    : 01:45:29.323000000
NUMBER_OF_FRAMES            : 151752
NUMBER_OF_BYTES             : 7509455505
_STATISTICS_WRITING_APP     : mkvmerge v7.3.0 ('Nouages') 64bit built on Oct 22 2014 18:53:34
_STATISTICS_WRITING_DATE_UT : 2014-12-11 01:38:19
_STATISTICS_TAGS            : BPS DURATION NUMBER_OF_FRAMES NUMBER_OF_BYTES

Audio #1
ID                          : 2
Format                      : AC-3
Format/Info                 : Audio Coding 3
Mode extension              : CM (complete main)
Format settings, Endianness : Big
Codec ID                    : A_AC3
Duration                    : 1h 45mn
Bit rate mode               : Constant
Bit rate                    : 192 Kbps
Channel(s)                  : 2 channels
Channel positions           : Front: L R
Sampling rate               : 48.0 KHz
Bit depth                   : 16 bits
Compression mode            : Lossy
Stream size                 : 145 MiB (2%)
Title                       : DVO [1+1] 2.0 192 kbps [Hurtom-rooster]
Language                    : Ukrainian
Default                     : Yes
Forced                      : No

Audio #2
ID                          : 3
Format                      : AC-3
Format/Info                 : Audio Coding 3
Mode extension              : CM (complete main)
Format settings, Endianness : Big
Codec ID                    : A_AC3
Duration                    : 1h 45mn
Bit rate mode               : Constant
Bit rate                    : 192 Kbps
Channel(s)                  : 2 channels
Channel positions           : Front: L R
Sampling rate               : 48.0 KHz
Bit depth                   : 16 bits
Compression mode            : Lossy
Stream size                 : 145 MiB (2%)
Title                       : DVO [Novyj] 2.0 192 kbps [Hurtom-rooster]
Language                    : Ukrainian
Default                     : No
Forced                      : No

Audio #3
ID                          : 4
Format                      : AC-3
Format/Info                 : Audio Coding 3
Mode extension              : CM (complete main)
Format settings, Endianness : Big
Codec ID                    : A_AC3
Duration                    : 1h 45mn
Bit rate mode               : Constant
Bit rate                    : 192 Kbps
Channel(s)                  : 1 channel
Channel positions           : Front: C
Sampling rate               : 48.0 KHz
Bit depth                   : 16 bits
Compression mode            : Lossy
Stream size                 : 145 MiB (2%)
Title                       : Original 1.0 192 kbps
Language                    : English
Default                     : No
Forced                      : No

Text
ID                          : 5
Format                      : UTF-8
Codec ID                    : S_TEXT/UTF8
Codec ID/Info               : UTF-8 Plain Text
Language                    : English
Default                     : No
Forced                      : No

Menu
00:00:00.000                : en:Chapter 01
00:06:52.285                : en:Chapter 02
00:09:39.078                : en:Chapter 03
00:19:35.299                : en:Chapter 04
00:24:03.023                : en:Chapter 05
00:30:40.171                : en:Chapter 06
00:31:28.261                : en:Chapter 07
00:37:02.969                : en:Chapter 08
00:38:03.948                : en:Chapter 09
00:41:23.022                : en:Chapter 10
00:47:54.496                : en:Chapter 11
00:54:43.780                : en:Chapter 12
00:59:13.967                : en:Chapter 13
01:04:01.921                : en:Chapter 14
01:09:11.772                : en:Chapter 15
01:12:53.952                : en:Chapter 16
01:21:33.930                : en:Chapter 17
01:27:34.332                : en:Chapter 18
01:32:12.610                : en:Chapter 19
01:34:29.080                : en:Chapter 20
01:40:03.080                : en:Chapter 21
01:41:36.131                : en:Chapter 22




Джерела та подяки: &
ріп відео, оригінальні звук та субтитри - kaspr (MediaClub); першоджерело українських доріжок - rooster - зведення, xslim - запис з ТБ (1+1); українізований постер - thefir; фільмографії акторів та інформація про озвучення - Віктор (всі - Гуртом).

Особиста оцінка: 8 - мені сподобалося


ЗАЛИШАЙТЕСЬ ЯКОМОГА ДОВШЕ НА РОЗДАЧІ!

СКАЧАВ САМ - ДАЙ СКАЧАТИ ІНШИМ


Срібний реліз (на рейтинг впливає 50% завантаженого)
 Трекер:    Зареєстрований   

Завантажити / скачати фільм українською



відео для новачків



 Зареєстрований:   2014-12-11 13:32
 Розмір:   7.42 GB 
 Оцінка фільму:   1.8/10 (Голосів: 11)
   
Інші релізи
Косячок справжній 
VIP


З нами з: 29.02.12
Востаннє: 07.12.16
Повідомлень: 658

2014-12-11 18:25  
Весела річ.
Ваш часовий пояс: GMT + 2 Години

Нова тема   Відповісти