Завантажити та скачати торренти українською


O. Torvald - Ти є (2014) [FLAC] | Rock

Нові коментарі

Нова тема   Відповісти
Автор Повідомлення
vamp69 
Поважний учасник


З нами з: 06.07.09
Востаннє: 09.12.16
Повідомлень: 173

2014-12-11 12:23  
O. Torvald - Ти є (2014) [FLAC] | Rock

O. Torvald - Ти є (2014) [FLAC] | Rock


Стиль: Punk Rock
Країна, місто: Україна, Полтава
Сайти: Офіційний сайт
Видавець: Moon Records
Виконавці:
Євген Галич (гітара, вокал)
Денис «Ден» Мизюк (гітара)
Володимир Ярошенко (бас-гітара)
Олександр Солоха (барабани)
Микола Райда — DJ Полярник (клавішні, DJ)
Пісні:
    1. Intro 2:20
    2. Все з початку 3:10
    3. Ти є 3:39
    4. Крик 3:34
    5. Пошло о любви 3:27
    6. Сніг 3:17
    7. Сочи 4:30
    8. До 6:00 3:28
    9. Там де я 3:53
    10. Оставь меня 3:29
    11. Мовчи 3:38
    12. Это всё 4:13
    13. Outro 2:37

Тривалість: 00:45:15
Мова: українська (1-3,5,7,8,12,13) , російська (4,6,9,11)
Аудіо-кодек: FLAC
Бітрейт: ~981 кб/с
Джерело: мій CD
"Лог:"
Exact Audio Copy V1.0 beta 3 from 29. August 2011

EAC extraction logfile from 11. December 2014, 11:36

O.TORVALD / Ти є

Used drive : ATAPI iHAS124 B Adapter: 4 ID: 0

Read mode : Secure
Utilize accurate stream : Yes
Defeat audio cache : Yes
Make use of C2 pointers : No

Read offset correction : 6
Overread into Lead-In and Lead-Out : No
Fill up missing offset samples with silence : Yes
Delete leading and trailing silent blocks : No
Null samples used in CRC calculations : Yes
Used interface : Native Win32 interface for Win NT & 2000

Used output format : Internal WAV Routines
Sample format : 44.100 Hz; 16 Bit; Stereo

TOC of the extracted CD

Track | Start | Length | Start sector | End sector
---------------------------------------------------------
1 | 0:00.00 | 2:20.59 | 0 | 10558
2 | 2:20.59 | 3:10.40 | 10559 | 24848
3 | 5:31.24 | 3:39.16 | 24849 | 41289
4 | 9:10.40 | 3:34.10 | 41290 | 57349
5 | 12:44.50 | 3:27.66 | 57350 | 72940
6 | 16:12.41 | 3:17.56 | 72941 | 87771
7 | 19:30.22 | 4:30.60 | 87772 | 108081
8 | 24:01.07 | 3:28.41 | 108082 | 123722
9 | 27:29.48 | 3:53.31 | 123723 | 141228
10 | 31:23.04 | 3:29.23 | 141229 | 156926
11 | 34:52.27 | 3:38.09 | 156927 | 173285
12 | 38:30.36 | 4:13.58 | 173286 | 192318
13 | 42:44.19 | 2:37.38 | 192319 | 204131

Range status and errors

Selected range

Filename I:\Українська музика\O.TORVALD - 2014 - Ти є (lossless)\O.TORVALD - 2014 - Ти є.wav

Peak level 100.0 %
Extraction speed 5.4 X
Range quality 99.9 %
Test CRC 95193750
Copy CRC 95193750
Copy OK

No errors occurred

AccurateRip summary

Track 1 not present in database
Track 2 not present in database
Track 3 not present in database
Track 4 not present in database
Track 5 not present in database
Track 6 not present in database
Track 7 not present in database
Track 8 not present in database
Track 9 not present in database
Track 10 not present in database
Track 11 not present in database
Track 12 not present in database
Track 13 not present in database

None of the tracks are present in the AccurateRip database

End of status report

---- CUETools DB Plugin V2.1.3

[CTDB TOCID: .m6iM_7wgSNNzneNghVlewLPl5s-] disk not present in database, Submit result: .m6iM_7wgSNNzneNghVlewLPl5s- has been uploaded

==== Log checksum 24FAAA1ECA33468D8E388CD6D1CD30ECD846C0593F15FE44DBE85BA3A07BA664 ====
Якщо Ви справді бажаєте підтримати українське - після прослуховування, якщо музика вам сподобалась, придбайте ліцензійний диск. Підтримаймо вітчизняних виконавців!


Срібний реліз (на рейтинг впливає 50% завантаженого)
 Трекер:    Зареєстрований   

Завантажити / скачати українську музику



відео для новачків



 Зареєстрований:   2014-12-11 12:23
 Розмір:   351 MB 
 Оцінка музики:   9.5/10 (Голосів: 19)
   
electus 
Новенький


З нами з: 01.02.11
Востаннє: 03.12.16
Повідомлень: 5

2014-12-20 17:52  
Оууу, круто!!!
Велике спасибі за flac.

K2 
Поважний учасник


З нами з: 02.11.08
Востаннє: 10.12.16
Повідомлень: 159

2015-03-09 21:42  
Дякую! Хороший альбом в правильній якості.
Ваш часовий пояс: GMT + 2 Години

Нова тема   Відповісти