Завантажити та скачати торренти українською


Холостяцька вечірка / Bachelor Party (1984) 2хUkr/Eng | Sub Eng

Нові коментарі

Нова тема   Відповісти
Автор Повідомлення
Anonymous 







2014-12-11 10:05  
Холостяцька вечірка / Bachelor Party (1984) 2хUkr/Eng | Sub Eng



Жанр: мелодрама, комедія
Країна: США



Кінокомпанія: Bachelor Party Productions, Aspect Ratio Film, Twin Continental, 20th Century Fox
Режисер: Ніл Ізраель / Neal Israel
Актори: Том Генкс / Tom Hanks, Тоні Кітен / Tawny Kitaen, Адріан Змед / Adrian Zmed, Джордж Ґріззард / George Grizzard, Барбара Стюарт / Barbara Stuart, Роберт Прескотт / Robert Prescott, Вільям Теппер / William Tepper, Венді Джо Спербер / Wendie Jo Sperber, Баррі Даймонд / Barry Diamond, Гарі Гроссман / Gary Grossman, Майкл Дудікофф / Michael Dudikoff та інші

Сюжет:
В останній день перед весіллям водій шкільного автобуса Рік вирішує зібрати всіх друзів на останню шалену вечірку за принципом "пива і жінок багато не буває". Його наречена Деббі бере ситуацію під особистий контроль і очолює загін вірних подружок, що прямують на парубочі вечорниці.

Влаштувавши пастку повіям, яких замовлено для Ріка, подружки переодягаються й проходять до будівлі, де відбувається вечірка. Тим часом багатий батько Деббі, незадоволений тим, що дочка виходить заміж за невдаху, нацьковує на всю компанію колишнього коханого Деббі з метою повернути дочку за всяку ціну.

Рік доблесно опанує ситуацію - відмінно погуляє, не осоромиться перед друзями та ще й при цьому збереже вірність своїй нареченій.


Рейтинг MPAA: R - особам до 17 років обов'язкова присутність батьків або дорослого опікуна
Вікова категорія: 16+

Тривалість: 01:45:29
Якість:
Відео:
кодек:
розмір кадру: 704x384
бітрейт: 2144 кбіт/с

Аудіо # 1:
мова: українська
переклад: двоголосий закадровий
ролі озвучили: Євген Пашин та Тетяна Антонова
кодек: 2.0
бітрейт: 192 кб/с

Аудіо # 2:
мова: українська - Новий Канал
переклад: двоголосий закадровий
ролі озвучили: Євген Пашин та Олена Узлюк
кодек: 2.0
бітрейт: 192 кб/с

Аудіо # 3:
мова: англійська
переклад: оригінал
кодек: 1.0 (моно)
бітрейт: 96 кб/с

Субтитри:
мова: англійська (завантажити)
тип: програмні (м'які)
формат: *.srt
MediaInfo
General
Complete name : Bachelor Party (1984) [2xUkr,Eng] [Hurtom & HQClub].avi
Format : AVI
Format/Info : Audio Video Interleave
File size : 1.95 GiB
Duration : 1h 45mn
Overall bit rate : 2 643 Kbps
Movie name : Холостяцька вечірка / Bachelor Party / Мальчишник (1984)
Director : sociolog_melvas, igor911
Genre : мелодрама, комедія
Writing application : VirtualDubModRus 1.5.10.2 (build 2540/release) VirtualDubMod build 2540/release
Copyright : Hurtom & HQClub
Comment : 11.12.2014

Video
ID : 0
Format : MPEG-4 Visual
Format profile : Advanced [email protected]
Format settings, BVOP : 1
Format settings, QPel : No
Format settings, GMC : No warppoints
Format settings, Matrix : Custom
Codec ID :
Codec ID/Hint :
Duration : 1h 45mn
Bit rate : 2 144 Kbps
Width : 704 pixels
Height : 384 pixels
Display aspect ratio : 1.85:1
Frame rate : 23.976 fps
Color space : YUV
Chroma subsampling : 4:2:0
Bit depth : 8 bits
Scan type : Progressive
Compression mode : Lossy
Bits/(Pixel*Frame) : 0.331
Stream size : 1.58 GiB (81%)
Writing library : 65

Audio #1
ID : 1
Format : AC-3
Format/Info : Audio Coding 3
Mode extension : CM (complete main)
Format settings, Endianness : Big
Codec ID : 2000
Duration : 1h 45mn
Bit rate mode : Constant
Bit rate : 192 Kbps
Channel(s) : 2 channels
Channel positions : Front: L R
Sampling rate : 48.0 KHz
Bit depth : 16 bits
Compression mode : Lossy
Stream size : 145 MiB (7%)
Alignment : Split accross interleaves
Interleave, duration : 42 ms (1.00 video frame)
Interleave, preload duratio : 500 ms
Language : Не определен

Audio #2
ID : 2
Format : AC-3
Format/Info : Audio Coding 3
Mode extension : CM (complete main)
Format settings, Endianness : Big
Codec ID : 2000
Duration : 1h 45mn
Bit rate mode : Constant
Bit rate : 192 Kbps
Channel(s) : 2 channels
Channel positions : Front: L R
Sampling rate : 48.0 KHz
Bit depth : 16 bits
Compression mode : Lossy
Stream size : 145 MiB (7%)
Alignment : Split accross interleaves
Interleave, duration : 42 ms (1.00 video frame)
Interleave, preload duratio : 500 ms

Audio #3
ID : 3
Format : AC-3
Format/Info : Audio Coding 3
Mode extension : CM (complete main)
Format settings, Endianness : Big
Codec ID : 2000
Duration : 1h 45mn
Bit rate mode : Constant
Bit rate : 96.0 Kbps
Channel(s) : 1 channel
Channel positions : Front: C
Sampling rate : 48.0 KHz
Bit depth : 16 bits
Compression mode : Lossy
Stream size : 72.4 MiB (4%)
Alignment : Split accross interleaves
Interleave, duration : 42 ms (1.00 video frame)
Interleave, preload duratio : 500 ms




Джерела та подяки: &
ріп відео, оригінальні звук та субтитри - sociolog_melvas (HQClub); першоджерело українських доріжок - rooster - зведення, xslim - запис з ТБ (1+1); українізований постер - thefir; фільмографії акторів та інформація про озвучення - Віктор (всі - Гуртом).

Особиста оцінка: 8 - мені сподобалося


ЗАЛИШАЙТЕСЬ ЯКОМОГА ДОВШЕ НА РОЗДАЧІ!

СКАЧАВ САМ - ДАЙ СКАЧАТИ ІНШИМ


Срібний реліз (на рейтинг впливає 50% завантаженого)
 Трекер:    Зареєстрований   

Завантажити / скачати фільм українською



відео для новачків



 Зареєстрований:   2014-12-11 10:05
 Розмір:   1.95 GB 
 Оцінка фільму:   4.8/10 (Голосів: 18)
   
Інші релізи
bot 
робот


З нами з: 30.09.07
Востаннє: 26.05.05
Повідомлень: 15975

2014-12-11 10:06  
Тему перенесено з Фільми в HD до форуму Фільми


igor911

Anonymous 







2014-12-11 13:41  
Ось реліз у 720p: http://toloka.to/t61469
Ваш часовий пояс: GMT + 2 Години

Нова тема   Відповісти