Завантажити та скачати торренти українською


Вартові галактики / Guardians of the Galaxy (2014) 1080p 3D Ukr/Eng

Нові коментарі

Нова тема   Відповісти
Автор Повідомлення
3d_reliz 
Частий відвідувач


З нами з: 28.09.14
Востаннє: 15.03.16
Повідомлень: 35

2014-12-10 13:44  
Вартові галактики / Guardians of the Galaxy (2014) 1080p 3D [Half OverUnder] Ukr/Eng

Вартові галактики / Guardians of the Galaxy (2014) 1080p 3D Ukr/Eng

«П'ятеро космічних волоцюг»

Жанр: екшн, пригодницький, фантастика
Країна: США, Велика Британія



Кінокомпанія: Marvel Studios, Marvel Enterprises, Moving Picture Company (MPC)
Режисер: Джеймс Ґанн
Актори: Кріс Претт, Зої Салдана, Дейв Батіста, Він Дізель, Бредлі Купер, Лі Пейс, Майкл Рукер, Карен Ґіллан, Джімон Гонсу, Джон Сі Райлі

Сюжет:
Пітер Квілл стає жертвою мисливців за головами після крадіжки таємничої сфери, за якою полював Ронан - могутній лиходій, повний амбіцій і загрозливий для цілого всесвіту. Щоб здолати Ронана, Пітеру доводиться об'єднатися з квартетом покидьків: озброєним до зубів єнотом Ракетою, деревоподібним гуманоїдом Ґрутом, смертельно небезпечною і загадковою Гаморою і мстивим Драксом-Руйнівником. Але коли Пітер виявляє справжню силу сфери та дізнається наскільки вона небезпечна для космосу, він повинен зробити все можливе, щоб згуртувати всіх членів команди для останнього протистояння і повернути баланс у всій Галактиці.


Тривалість: 02:00:51
Якість:
Відео:
кодек:
розмір кадру: 1920 х 1080
бітрейт: 9859 Kб/с

Аудіо # 1:
мова: українська
переклад: професійний дубльований
кодек: 5.1
бітрейт: 384 кб/с

Аудіо # 2:
мова: англійська
переклад: оригінал
кодек: 5.1
бітрейт: 640 кб/с

Джерело озвучення:
MediaInfo
General
Unique ID : 200719808533324421783431024030973750978 (0x97013A9DAFA9BA03B6FD207573D4EEC2)
Complete name : E:\3D_film\GUARDIANS_GALAXY_3D_.mkv
Format : Matroska
Format version : Version 1
File size : 9.37 GiB
Duration : 2h 0mn
Overall bit rate : 11.1 Mbps
Movie name : GUARDIANS_GALAXY_3D_Crop_O/U
Encoded date : UTC 2014-12-10 11:18:22
Writing application : mkvmerge v2.4.1 ('Use Me') built on Dec 5 2008 18:30:05
Writing library : libebml v0.7.7 + libmatroska v0.8.1
Video #1
ID : 1
Format : AVC
Format/Info : Advanced Video Codec
Format profile : [email protected]
Format settings, CABAC : Yes
Format settings, ReFrames : 4 frames
Codec ID : V_MPEG4/ISO/AVC
Duration : 2h 0mn
Bit rate : 9 859 Kbps
Width : 1 920 pixels
Height : 1 080 pixels
Display aspect ratio : 16:9
Frame rate mode : Constant
Frame rate : 23.976 fps
Color space : YUV
Chroma subsampling : 4:2:0
Bit depth : 8 bits
Scan type : Progressive
Bits/(Pixel*Frame) : 0.198
Stream size : 8.32 GiB (89%)
Title : rip by I/N
Writing library : core 128 r2216M 198a7ea
Encoding settings : cabac=1 / ref=4 / deblock=1:-3:-3 / analyse=0x3:0x133 / me=umh / subme=10 / psy=1 / psy_rd=1.00:0.15 / mixed_ref=1 / me_range=32 / chroma_me=1 / trellis=2 / 8x8dct=1 / cqm=0 / deadzone=0,0 / fast_pskip=0 / chroma_qp_offset=-3 / threads=8 / lookahead_threads=1 / sliced_threads=0 / nr=0 / decimate=1 / interlaced=0 / bluray_compat=0 / constrained_intra=0 / bframes=8 / b_pyramid=2 / b_adapt=2 / b_bias=0 / direct=3 / weightb=1 / open_gop=0 / weightp=2 / keyint=230 / keyint_min=23 / scenecut=40 / intra_refresh=0 / rc_lookahead=60 / rc=crf / mbtree=1 / crf=17.0 / qcomp=0.60 / qpmin=0 / qpmax=69 / qpstep=4 / vbv_maxrate=40000 / vbv_bufsize=30000 / crf_max=30.0 / nal_hrd=none / ip_ratio=1.40 / aq=1:0.90
Default : Yes
Forced : No
Audio #2
ID : 2
Format : AC-3
Format/Info : Audio Coding 3
Mode extension : CM (complete main)
Format settings, Endianness : Big
Codec ID : A_AC3
Duration : 2h 0mn
Bit rate mode : Constant
Bit rate : 384 Kbps
Channel(s) : 6 channels
Channel positions : Front: L C R, Side: L R, LFE
Sampling rate : 48.0 KHz
Bit depth : 16 bits
Compression mode : Lossy
Stream size : 332 MiB (3%)
Title : Дубляж
Language : Ukrainian
Default : Yes
Forced : No
Audio #3
ID : 3
Format : AC-3
Format/Info : Audio Coding 3
Mode extension : CM (complete main)
Format settings, Endianness : Big
Codec ID : A_AC3
Duration : 2h 0mn
Bit rate mode : Constant
Bit rate : 640 Kbps
Channel(s) : 6 channels
Channel positions : Front: L C R, Side: L R, LFE
Sampling rate : 48.0 KHz
Bit depth : 16 bits
Compression mode : Lossy
Stream size : 553 MiB (6%)
Title : Original
Language : English
Default : No
Forced : No
Скріншоти





Цікаві факти про фільм
В чертогах Колекціонера можна побачити різні артефакти і форми життя зі всього Всесвіту, так наприклад Космо собака-космонавт, запущена Радянським Союзом і учасник команди в оригінальних коміксах, Хижака, і ельфів з фільму «Тор 2»
Коли Гамора проходить, правіше від неї можна побачити кокон Адама Варлока.
При вивченні Каменя Безкінечності показані Божества, які знищували планети.
Коли Колекціонер показує Пітеру презентацію про походження Сфери — Каменя Безкінечності, можна побачити Тессеракт — Один з Каменів Безкінечності, що з'явився у фільмах «Перший месник», «Месники» і в сцені після титрів фільму «Тор», а також Ефір — інший Камінь Безкінечності з фільму «Тор 2: Царство Тьми» і в його сцені після титрів, що відноситься до фільму «Вартові Галактики».
У сцені після титрів в зруйнованій скарбниці Колекціонера з'являється Говард-Качка, а також собака Космо.
Грут вміє вимовляти тільки дві фрази: «Я є Грут!» та «Ми є Грут!». Він Дизель записав цю фразу на шести мовах: англійській, французькій, іспанській, португальській, китайській і російській
Український трейлер

Як знімали фільм

Джерело: &
Особиста оцінка: 10 - без зайвих вагань рекомендую всім!
Особиста оцінка якості 3D: 9 - дуже якісне
3D перевірено з флешки на внутрішньому плеєрі телевізора LG





 Трекер:    Зареєстрований   

Завантажити / скачати фільм українською



відео для новачків



 Зареєстрований:   2014-12-10 13:44
 Розмір:   9.37 GB 
 Оцінка фільму:   8.9/10 (Голосів: 20)
   
donald_spark 
Новенький


З нами з: 17.08.14
Востаннє: 06.12.16
Повідомлень: 19

2014-12-22 17:27  
на роздачу хтось стане?
omm 
Відео Гуртом - фільмокрай
Відео Гуртом - фільмокрай


З нами з: 12.06.12
Востаннє: 11.12.16
Повідомлень: 2066

2014-12-22 17:36  
donald_spark написано:
на роздачу хтось стане?

тобі 15 сідерів мало?

Tyler 
Новенький


З нами з: 24.03.09
Востаннє: 05.09.16
Повідомлень: 21

2014-12-26 20:40  
Фільм шикарний. Рекомендую усім.
BBLock 
Новенький


З нами з: 07.02.11
Востаннє: 03.11.16
Повідомлень: 8

2014-12-28 17:46  
Це що кроп?

Ваш часовий пояс: GMT + 2 Години

Нова тема   Відповісти