Завантажити та скачати торренти українською


Втеча з Алькатрасу / Escape from Alcatraz (1979) 720p 2xUkr/Eng | Sub Multi

Нові коментарі

Нова тема   Відповісти
Автор Повідомлення
Anonymous 







2014-12-10 08:50  
Втеча з Алькатрасу / Escape from Alcatraz (1979) 720p 2xUkr/Eng | Sub Multi



Альтернативний постер



Жанр: трилер, драма, кримінальний, біографічний
Країна: США



Кінокомпанія: Paramount Pictures, Malpaso Company
Режисер: Дон Сіґел / Don Siegel
Композитор: Джеррі Філдінґ / Jerry Fielding
Актори: Клінт Іствуд / Clint Eastwood, Патрік МакҐуен / Patrick McGoohan, Роберт Блоссом / Roberts Blossom, Джек Тібо / Jack Thibeau, Фред Ворд / Fred Ward, Пол Бенджамін / Paul Benjamin та інші

Сюжет:
В'язниці створені для того, щоб ізолювати від іншого світу окремих суб'єктів. Однак серед ув'язнених завжди перебували сміливці, здатні на втечу. Суспільство завжди плекало мрію про зведення ідеальної в'язниці, з якої неможливо було б утекти. І такий заклад вдалося побудувати на острові неподалік від Сан - Франциско.

В'язниця називалась «Алькатрас». Двадцять дев'ять років вважалася вона найнадійнішою в'язницею США. У ній сиділи знамениті злодії, шахраї й навіть сам Аль Капоне. Але в один прекрасний день поріг цієї страшної в'язниці переступив грабіжник банків Френк Моріс.

Він не побажав відбувати в "гостинних" стінах призначений судом строк і здійснив одну з найбільших втеч в історії криміналістики.


Рейтинг MPAA: PG - рекомендується присутність батьків
Вікова категорія: 12+

Тривалість: 01:54:36
Якість: 720p [DON]
Відео:
кодек:
розмір кадру: 1280x720
бітрейт: 7803 кбіт/с [crf=18]

Аудіо # 1:
мова: українська - Інтер
переклад: багатоголосий закадровий
ролі озвучили: Анатолій Пашнін, Віталій Дорошенко, Олег Стальчук, ще один чоловічий і один жіночий голоси
кодек: 5.1
бітрейт: 448 кб/с

Аудіо # 2: & & Ukrainian Studio Production
мова: українська - Новий Канал
озвучення: багатоголосе закадрове
переклад: Сергій Ковальчук
ролі озвучили: Михайло Жонін, Олег Лепенець і Лариса Руснак
кодек: 5.1
бітрейт: 1509 кб/с
примітка: доріжку створено шляхом накладанням чистих студійних голосів на центр декодованого Dolby TrueHD.

Аудіо # 3:
мова: англійська
переклад: оригінал
кодек: 5.1
бітрейт: 640 кб/с

Субтитри #1-6:
мова: англійська, англійська (SDH), іспанська, французька, німецька, італійська
тип: програмні (м'які)
формат: *.srt

Збережено оригінальні розділи, як на Blu-ray.
MediaInfo
Код:
General
Unique ID                   : 193587644710769866520825905444198365002 (0x91A39FCA56988197822593EA58E1374A)
Complete name               : Escape from Alcatraz (1979) [2xUkr,Eng sub.Multi] 720p [Hurtom & HDClub].mkv
Format                      : Matroska
Format version              : Version 4 / Version 2
File size                   : 8.49 GiB
Duration                    : 1h 54mn
Overall bit rate            : 10.6 Mbps
Movie name                  : Втеча з Алькатрасу / Escape from Alcatraz (1979) 720p [Hurtom & HDClub]
Encoded date                : UTC 2014-12-09 22:27:02
Writing application         : mkvmerge v7.3.0 ('Nouages') 64bit built on Oct 22 2014 18:53:34
Writing library             : libebml v1.3.0 + libmatroska v1.4.1
DURATION                    : 01:51:55.616000000
NUMBER_OF_FRAMES            : 209863
NUMBER_OF_BYTES             : 376074496
_STATISTICS_WRITING_APP     : mkvmerge v7.3.0 ('Nouages') 64bit built on Oct 22 2014 18:53:34
_STATISTICS_WRITING_DATE_UT : 2014-12-09 22:27:02
_STATISTICS_TAGS            : BPS DURATION NUMBER_OF_FRAMES NUMBER_OF_BYTES

Video
ID                          : 1
Format                      : AVC
Format/Info                 : Advanced Video Codec
Format profile              : [email protected]
Format settings, CABAC      : Yes
Format settings, ReFrames   : 9 frames
Codec ID                    : V_MPEG4/ISO/AVC
Duration                    : 1h 54mn
Bit rate                    : 7 803 Kbps
Width                       : 1 280 pixels
Height                      : 720 pixels
Display aspect ratio        : 16:9
Frame rate mode             : Constant
Frame rate                  : 23.976 fps
Color space                 : YUV
Chroma subsampling          : 4:2:0
Bit depth                   : 8 bits
Scan type                   : Progressive
Bits/(Pixel*Frame)          : 0.353
Stream size                 : 6.25 GiB (74%)
Title                       : Втеча з Алькатрасу / Escape from Alcatraz / Побег из Алькатраса (1979) 720p [DON]
Writing library             : core 129 r2230kMod 1cffe9f
Encoding settings           : cabac=1 / ref=9 / deblock=1:-3:-3 / analyse=0x3:0x113 / me=umh / subme=9 / psy=1 / fade_compensate=0.00 / psy_rd=1.10:0.00 / mixed_ref=1 / me_range=16 / chroma_me=1 / trellis=2 / 8x8dct=1 / cqm=0 / deadzone=21,11 / fast_pskip=0 / chroma_qp_offset=-2 / threads=6 / lookahead_threads=1 / sliced_threads=0 / nr=0 / decimate=0 / interlaced=0 / bluray_compat=0 / constrained_intra=0 / bframes=8 / b_pyramid=2 / b_adapt=2 / b_bias=0 / direct=3 / weightb=1 / open_gop=0 / weightp=2 / keyint=250 / keyint_min=23 / scenecut=40 / intra_refresh=0 / rc_lookahead=40 / rc=crf / mbtree=1 / crf=18.0000 / qcomp=0.70 / qpmin=0 / qpmax=69 / qpstep=4 / ip_ratio=1.30 / aq=1:0.75
Language                    : English
Default                     : Yes
Forced                      : No
DURATION                    : 01:51:55.584000000
NUMBER_OF_FRAMES            : 161013
NUMBER_OF_BYTES             : 6907768340
_STATISTICS_WRITING_APP     : mkvmerge v7.3.0 ('Nouages') 64bit built on Oct 22 2014 18:53:34
_STATISTICS_WRITING_DATE_UT : 2014-12-09 22:27:02
_STATISTICS_TAGS            : BPS DURATION NUMBER_OF_FRAMES NUMBER_OF_BYTES

Audio #1
ID                          : 2
Format                      : AC-3
Format/Info                 : Audio Coding 3
Mode extension              : CM (complete main)
Format settings, Endianness : Big
Codec ID                    : A_AC3
Duration                    : 1h 54mn
Bit rate mode               : Constant
Bit rate                    : 448 Kbps
Channel(s)                  : 6 channels
Channel positions           : Front: L C R, Side: L R, LFE
Sampling rate               : 48.0 KHz
Bit depth                   : 16 bits
Compression mode            : Lossy
Stream size                 : 367 MiB (4%)
Title                       : MVO [Inter] 5.1 448 kbps [Hurtom-_oles]
Language                    : Ukrainian
Default                     : Yes
Forced                      : No

Audio #2
ID                          : 3
Format                      :
Format/Info                 : Digital Theater Systems
Mode                        : 16
Format settings, Endianness : Big
Codec ID                    : A_DTS
Duration                    : 1h 54mn
Bit rate mode               : Constant
Bit rate                    : 1 509 Kbps
Channel(s)                  : 6 channels
Channel positions           : Front: L C R, Side: L R, LFE
Sampling rate               : 48.0 KHz
Bit depth                   : 24 bits
Compression mode            : Lossy
Stream size                 : 1.21 GiB (14%)
Title                       : MVO [Novyj] 5.1 1509 kbps [HDClub & Ukrainian Studio Production]
Language                    : Ukrainian
Default                     : No
Forced                      : No

Audio #3
ID                          : 4
Format                      : AC-3
Format/Info                 : Audio Coding 3
Mode extension              : CM (complete main)
Format settings, Endianness : Big
Codec ID                    : A_AC3
Duration                    : 1h 54mn
Bit rate mode               : Constant
Bit rate                    : 640 Kbps
Channel(s)                  : 6 channels
Channel positions           : Front: L C R, Side: L R, LFE
Sampling rate               : 48.0 KHz
Bit depth                   : 16 bits
Compression mode            : Lossy
Stream size                 : 525 MiB (6%)
Title                       : Original 5.1 640 kbps
Language                    : English
Default                     : No
Forced                      : No

Text #1
ID                          : 5
Format                      : UTF-8
Codec ID                    : S_TEXT/UTF8
Codec ID/Info               : UTF-8 Plain Text
Language                    : English
Default                     : No
Forced                      : No

Text #2
ID                          : 6
Format                      : UTF-8
Codec ID                    : S_TEXT/UTF8
Codec ID/Info               : UTF-8 Plain Text
Title                       : SDH
Language                    : English
Default                     : No
Forced                      : No

Text #3
ID                          : 7
Format                      : UTF-8
Codec ID                    : S_TEXT/UTF8
Codec ID/Info               : UTF-8 Plain Text
Language                    : Spanish
Default                     : No
Forced                      : No

Text #4
ID                          : 8
Format                      : UTF-8
Codec ID                    : S_TEXT/UTF8
Codec ID/Info               : UTF-8 Plain Text
Language                    : French
Default                     : No
Forced                      : No

Text #5
ID                          : 9
Format                      : UTF-8
Codec ID                    : S_TEXT/UTF8
Codec ID/Info               : UTF-8 Plain Text
Language                    : German
Default                     : No
Forced                      : No

Text #6
ID                          : 10
Format                      : UTF-8
Codec ID                    : S_TEXT/UTF8
Codec ID/Info               : UTF-8 Plain Text
Language                    : Italian
Default                     : No
Forced                      : No

Menu
00:00:00.000                : en:"Welcome to Alcatraz"
00:08:16.871                : en:Litmus
00:12:34.545                : en:The Warden
00:17:16.201                : en:Wolf
00:19:09.398                : en:Library "Boy"
00:23:41.336                : en:King of the Mountain
00:27:56.591                : en:D Block
00:35:26.207                : en:Charlie Butts
00:37:32.124                : en:Painting Privileges
00:47:51.702                : en:A Way Out
01:00:10.815                : en:Tools of the Trade
01:11:42.965                : en:Sound Sleeper
01:16:55.944                : en:Local Hardware
01:25:25.703                : en:Shakedown
01:30:44.021                : en:Return of Wolf
01:33:06.080                : en:Moving Day
01:45:47.674                : en:Search Party




Джерела та подяки: &
ріп відео, оригінальні звук та субтитри - DON (HDbits), madoff (HDClub); українські доріжки - (1, Інтер) - _oles - зведення, slavik_v_z - запис з ТБ; (2, Новий) - HDClub & Ukrainian Studio Production; фільмографії акторів та інформація про озвучення - Віктор (всі - Гуртом).

Особиста оцінка: 8 - мені сподобалося


ЗАЛИШАЙТЕСЬ ЯКОМОГА ДОВШЕ НА РОЗДАЧІ!

СКАЧАВ САМ - ДАЙ СКАЧАТИ ІНШИМ


Срібний реліз (на рейтинг впливає 50% завантаженого)
 Трекер:    Зареєстрований   

Завантажити / скачати фільм українською



відео для новачків



 Зареєстрований:   2014-12-10 08:50
 Розмір:   8.49 GB 
 Оцінка фільму:   4.9/10 (Голосів: 18)
   
Інші релізи
patriot2305 
Почесний гуртомівець


З нами з: 23.04.11
Востаннє: 02.12.16
Повідомлень: 4145

2014-12-10 10:01  
Чому дтска не першою? Справжнє 5.1 та ще й дтс 1509, стоїть другою, а псевдо 5.1 поставлено першим...
Anonymous 







2014-12-10 10:02  
Мені озвучка та голоси сподобалась більше, та й _oles теж вибрав такий порядок.
Ваш часовий пояс: GMT + 2 Години

Нова тема   Відповісти