Завантажити та скачати торренти українською


Козирні тузи / Smokin' Aces (2006) 1080p Ukr/Eng | Sub Ukr/Eng

Нові коментарі

Нова тема   Відповісти
Автор Повідомлення
Anonymous 







2014-12-09 21:15  
Козирні тузи / Smokin' Aces (2006) 1080p Ukr/Eng | Sub Ukr/Eng



Український постер


Жанр: бойовик, трилер, драма, кримінальний
Країна: Велика Британія, Франція, США



Кінокомпанія: Universal Pictures, StudioCanal, Relativity Media, Working Title Films, Scion Films
Режисер: Джо Карнахан / Joe Carnahan
Актори: Раян Рейнольдс / Ryan Reynolds, Рей Ліотта / Ray Liotta, Джозеф Рускін / Joseph Ruskin, Алекс Рокко / Alex Rocco, Вейн Ньютон / Wayne Newton, Джеремі Півен / Jeremy Piven, Бен Аффлек / Ben Affleck, Пітер Берг / Peter Berg, Мартін Хендерсон / Martin Henderson, Коммон / Common, Енді Ґарсія / Andy Garcia, Алішіа Кіс / Alicia Keys, Кріс Пайн / Chris Pine, Кевін Дюран / Kevin Durand, Томмі Фленаган / Tommy Flanagan та інші

Сюжет:
Колишній протеже гангстерського боса, успішний сценічний комік, вирішує виступити в суді зі свідченнями проти своїх колишніх друзів. За його серце найманим вбивцям призначена винагорода в 1 мільйон доларів.


Рейтинг MPAA: R - особам до 17 років обов'язкова присутність батьків або дорослого опікуна
Вікова категорія: 16+

Тривалість: 01:48:47
Якість: 1080p [CtrlHD]
Відео:
кодек:
розмір кадру: 1920 х 816
бітрейт: 13,7 Мбіт/с

Аудіо # 1:
мова: українська
озвучення: багатоголосе закадрове
переклад: Сергій Ковальчук
ролі озвучили: Раян Рейнольдс — Анатолій Пашнін, Бен Афлек — Володимир Терещук, Рей Ліота — Юрій Гребельник і один жіночий голос
кодек: 5.1
бітрейт: 448 кбіт/с

Аудіо # 2:
мова: англійська
переклад: оригінал
кодек: 5.1
бітрейт: 1509 кбіт/с

Аудіо # 3:
мова: англійська
переклад: коментарі
кодек: 2.0
бітрейт: 192 кбіт/с

Субтитри # 1:
мова: українська
тип: програмні (м'які)
формат: *.srt

Субтитри #2-3:
мова: англійська (повні, коментарі)
тип: програмні (м'які)
формат: *.srt

Збережено оригінальні розділи, як на Blu-ray.
MediaInfo
Код:
General
Unique ID                   : 251291696499618274269886707782785420446 (0xBD0D0532CDABC3B6B4C522E1D9D3CC9E)
Complete name               : Smokin Aces (2006) [Ukr,Eng sub.Ukr,Eng] 1080p [Hurtom & HDClub].mkv
Format                      : Matroska
Format version              : Version 4 / Version 2
File size                   : 12.3 GiB
Duration                    : 1h 48mn
Overall bit rate            : 16.1 Mbps
Movie name                  : Козирні тузи / Smokin' Aces (2006) 1080p [Hurtom & HDClub]
Encoded date                : UTC 2014-12-09 17:25:29
Writing application         : mkvmerge v7.3.0 ('Nouages') 64bit built on Oct 22 2014 18:53:34
Writing library             : libebml v1.3.0 + libmatroska v1.4.1
DURATION                    : 01:48:47.584000000
NUMBER_OF_FRAMES            : 203987
NUMBER_OF_BYTES             : 365544704
_STATISTICS_WRITING_APP     : mkvmerge v7.3.0 ('Nouages') 64bit built on Oct 22 2014 18:53:34
_STATISTICS_WRITING_DATE_UT : 2014-12-09 17:25:29
_STATISTICS_TAGS            : BPS DURATION NUMBER_OF_FRAMES NUMBER_OF_BYTES

Video
ID                          : 1
Format                      : AVC
Format/Info                 : Advanced Video Codec
Format profile              : [email protected]
Format settings, CABAC      : Yes
Format settings, ReFrames   : 5 frames
Codec ID                    : V_MPEG4/ISO/AVC
Duration                    : 1h 48mn
Bit rate                    : 13.7 Mbps
Width                       : 1 920 pixels
Height                      : 816 pixels
Display aspect ratio        : 2.35:1
Frame rate mode             : Constant
Frame rate                  : 23.976 fps
Color space                 : YUV
Chroma subsampling          : 4:2:0
Bit depth                   : 8 bits
Scan type                   : Progressive
Bits/(Pixel*Frame)          : 0.364
Stream size                 : 10.4 GiB (85%)
Title                       : Козирні тузи / Smokin' Aces / Козырные тузы (2006) 1080p [CtrlHD]
Language                    : English
Default                     : Yes
Forced                      : No
DURATION                    : 01:48:47.563000000
NUMBER_OF_FRAMES            : 156505
NUMBER_OF_BYTES             : 11416417398
_STATISTICS_WRITING_APP     : mkvmerge v7.3.0 ('Nouages') 64bit built on Oct 22 2014 18:53:34
_STATISTICS_WRITING_DATE_UT : 2014-12-09 17:25:29
_STATISTICS_TAGS            : BPS DURATION NUMBER_OF_FRAMES NUMBER_OF_BYTES

Audio #1
ID                          : 2
Format                      : AC-3
Format/Info                 : Audio Coding 3
Mode extension              : CM (complete main)
Format settings, Endianness : Big
Codec ID                    : A_AC3
Duration                    : 1h 48mn
Bit rate mode               : Constant
Bit rate                    : 448 Kbps
Channel(s)                  : 6 channels
Channel positions           : Front: L C R, Side: L R, LFE
Sampling rate               : 48.0 KHz
Bit depth                   : 16 bits
Compression mode            : Lossy
Stream size                 : 349 MiB (3%)
Title                       : MVO [Ukraina] 5.1 448 kbps [Hurtom-Romario_O]
Language                    : Ukrainian
Default                     : Yes
Forced                      : No

Audio #2
ID                          : 3
Format                      :
Format/Info                 : Digital Theater Systems
Mode                        : 16
Format settings, Endianness : Big
Codec ID                    : A_DTS
Duration                    : 1h 48mn
Bit rate mode               : Constant
Bit rate                    : 1 509 Kbps
Channel(s)                  : 6 channels
Channel positions           : Front: L C R, Side: L R, LFE
Sampling rate               : 48.0 KHz
Bit depth                   : 24 bits
Compression mode            : Lossy
Stream size                 : 1.15 GiB (9%)
Title                       : Original 5.1 1509 kbps
Language                    : English
Default                     : No
Forced                      : No

Audio #3
ID                          : 4
Format                      : AC-3
Format/Info                 : Audio Coding 3
Format profile              : Dolby Digital
Mode extension              : CM (complete main)
Format settings, Endianness : Big
Codec ID                    : A_AC3
Duration                    : 1h 48mn
Bit rate mode               : Constant
Bit rate                    : 192 Kbps
Channel(s)                  : 2 channels
Channel positions           : Front: L R
Sampling rate               : 48.0 KHz
Bit depth                   : 16 bits
Compression mode            : Lossy
Stream size                 : 149 MiB (1%)
Title                       : Commentary
Language                    : English
Default                     : No
Forced                      : No

Text #1
ID                          : 5
Format                      : UTF-8
Codec ID                    : S_TEXT/UTF8
Codec ID/Info               : UTF-8 Plain Text
Language                    : Ukrainian
Default                     : No
Forced                      : No

Text #2
ID                          : 6
Format                      : UTF-8
Codec ID                    : S_TEXT/UTF8
Codec ID/Info               : UTF-8 Plain Text
Language                    : English
Default                     : No
Forced                      : No

Text #3
ID                          : 7
Format                      : UTF-8
Codec ID                    : S_TEXT/UTF8
Codec ID/Info               : UTF-8 Plain Text
Title                       : Commentary
Language                    : English
Default                     : No
Forced                      : No

Menu
00:00:00.000                : :1. Most Wanted
00:05:43.301                : :2. Showman of the Year
00:11:14.799                : :3. Meet the Players
00:18:20.182                : :4. What's the Plan?
00:25:49.548                : :5. Under Negotiation
00:30:19.776                : :6. Wrong Place, Wrong Time
00:35:39.137                : :7. Checkmate
00:40:19.250                : :8. Mama's Got Your Back
00:48:22.608                : :9. Loyal and Devout
00:55:46.134                : :10. Recovered
00:59:58.845                : :11. Elevator Exchange
01:04:17.937                : :12. The Last Chip
01:10:15.878                : :13. Deal Revoked
01:14:52.363                : :14. Bring It!
01:22:16.765                : :15. Accounted For
01:24:53.630                : :16. The Aftermath
01:28:15.624                : :17. Beat Out
01:31:14.678                : :18. Betrayed
01:39:25.585                : :19. Pulling the Plug
01:42:18.007                : :20. End Titles




Джерела та подяки: &
ріп відео, оригінальні звук та субтитри - CtrlHD (HDbits), madoff (HDClub); українська доріжка - Romario_O; фільмографії акторів та інформація про озвучення - Віктор (всі - Гуртом).


ЗАЛИШАЙТЕСЬ ЯКОМОГА ДОВШЕ НА РОЗДАЧІ!

СКАЧАВ САМ - ДАЙ СКАЧАТИ ІНШИМ


 Трекер:    Зареєстрований   

Завантажити / скачати фільм українською



відео для новачків



 Зареєстрований:   2014-12-09 21:15
 Розмір:   12.27 GB 
 Оцінка фільму:   2.9/10 (Голосів: 15)
   
Інші релізи
Косячок справжній 
VIP


З нами з: 29.02.12
Востаннє: 09.12.16
Повідомлень: 658

2015-12-10 22:23  
Не вразив фільм.
Ваш часовий пояс: GMT + 2 Години

Нова тема   Відповісти