Завантажити та скачати торренти українською


Це стаЛОСЬ у зимову ніч / Midden in De Winternacht / A ChristMOOSE Story (2013) Nld | sub Ukr

Нові коментарі

Нова тема   Відповісти
Автор Повідомлення
1101 
Свій


З нами з: 09.07.12
Востаннє: 24.11.16
Повідомлень: 62

2014-12-09 20:05  
Це стаЛОСЬ у зимову ніч / Midden in De Winternacht / A ChristMOOSE Story (2013) Nld | sub Ukr

Це стаЛОСЬ у зимову ніч / Midden in De Winternacht / A ChristMOOSE Story (2013) Nld | sub Ukr


Жанр: сімейний, пригоди
Країна: Нідерланди, Швеція



Кінокомпанія: Lemming Film, Svensk Filmindustri (SF), Davaj Film
Режисер: Лоуренс Блок / Lourens Blok
Актори: Денніс Рейнсма, Дана Голдберг, Єлка ван Хоутен, Ар’ян Ендервеєн, Карла Харді, Дерек де Лінт та інші.

Сюжет:
Історія, яка змусить вас повірити у різдвяне диво!
Коли батько сказав, що не зможе приїхати, Макс переконав себе, що Різдво буде надзвичайно нудним. Але ця впевненість зникає після того, як посеред ночі в його сарай звалюється з неба Лось, який вміє (і любить!) розмовляти. Виявляється, що це лось самого Санта Клауса, і під час пробного польоту їхні сани зазнали аварії. Тепер Максу й Лосю треба знайти Санту, інакше Різдва не буде і жоден не отримає довгоочікуваних подарунків.


Тривалість: 01:19:57
Якість:
Відео:
кодек:
розмір кадру: 720 х 304
бітрейт: 1338 кб/с

Аудіо:
мова: нідерландська
переклад: оригінал
кодек: 5.1
бітрейт: 448 кб/с

Субтитри:
мова: українська (аматорський переклад з англійських субтитрів)
тип: програмні (м'які)
формат: *.srt
Скріншоти





Media Info
Format : AVI
Format/Info : Audio Video Interleave
File size : 1.00 GiB
Duration : 1h 19mn
Overall bit rate : 1 797 Kbps

Video
ID : 0
Format : MPEG-4 Visual
Format profile : [email protected]
Format settings, BVOP : No
Format settings, QPel : No
Format settings, GMC : No warppoints
Format settings, Matrix : Default (H.263)
Codec ID :
Codec ID/Hint :
Duration : 1h 19mn
Bit rate : 1 338 Kbps
Width : 720 pixels
Height : 304 pixels
Display aspect ratio : 2.35:1
Frame rate : 25.000 fps
Color space : YUV
Chroma subsampling : 4:2:0
Bit depth : 8 bits
Scan type : Progressive
Compression mode : Lossy
Bits/(Pixel*Frame) : 0.244
Stream size : 765 MiB (74%)
Writing library : 1.1.2 (UTC 2006-11-01)

Audio
ID : 1
Format : AC-3
Format/Info : Audio Coding 3
Mode extension : CM (complete main)
Codec ID : 2000
Duration : 1h 19mn
Source duration : 1h 19mn
Bit rate mode : Constant
Bit rate : 448 Kbps
Channel(s) : 6 channels
Channel positions : Front: L C R, Side: L R, LFE
Sampling rate : 48.0 KHz
Bit depth : 16 bits
Compression mode : Lossy
Stream size : 256 MiB (25%)
Alignment : Aligned on interleaves
Interleave, duration : 32 ms (0.80 video frame)
Interleave, preload duration : 512 ms
Приклад субтитрів

173
00:20:20,251 --> 00:20:21,843
Я можу все пояснити.

174
00:20:22,371 --> 00:20:25,920
Сумніваюся. З погляду науки
пояснити все це важко.

175
00:20:26,131 --> 00:20:27,405
Кікі...

176
00:20:28,411 --> 00:20:30,242
Це лось Санта Клауса.

177
00:20:30,451 --> 00:20:33,443
Дуже малоймовірно,
Санта Клауса не існує.

178
00:20:33,651 --> 00:20:37,485
Наша пісня гарна й нова. Не хотілося б
починати безкінечну суперечку...

179
00:20:37,691 --> 00:20:41,479
Більше того, Санта Клауса,
якого не існує, возить не лось...

180
00:20:41,691 --> 00:20:44,000
- ...а дев'ятеро оленів.
- Оленів?

181
00:20:44,211 --> 00:20:45,883
Не може бути. Навіть дев'ятеро.

182
00:20:46,091 --> 00:20:47,410
Це було б щось.

183
00:20:47,611 --> 00:20:51,650
Так, це: Стрімкий, Танцюрист, Скакун,
Жвавий, Комета, Купідон, Грім, Блискавка...

184
00:20:51,851 --> 00:20:52,886
...і Рудольф.

185
00:20:53,091 --> 00:20:55,321
- Але їх також не існує.
- Кікі!

186
00:20:56,211 --> 00:20:59,567
Їх не існує, бо в Санта Клауса є лось.

187
00:20:59,811 --> 00:21:02,609
І ось він тут: Аполлон!

188
00:21:04,051 --> 00:21:05,450
Тебе звати Аполлон?

189
00:21:07,251 --> 00:21:09,606
- На його честь навіть назвали ракету.
- Ну...

190
00:21:09,811 --> 00:21:13,121
Ти маєш на увазі "Аполлон-11",
яка літала на Місяць у 1969 році?

191
00:21:13,331 --> 00:21:17,290
Цю ракету назвали на честь римського
бога, і аж ніяк не на честь лося.
Особиста оцінка: 10 - без зайвих вагань рекомендую всім!


Золотий реліз (завантажене не впливає на рейтинг)
 Трекер:    Зареєстрований   

Завантажити / скачати фільм українською



відео для новачків



 Зареєстрований:   2014-12-09 20:05
 Розмір:   1 GB 
 Оцінка фільму:   10/10 (Голосів: 6)
   
tetna 
Поважний учасник


З нами з: 21.11.14
Востаннє: 08.12.16
Повідомлень: 152

2014-12-23 14:41  
фільм цікавий ?
як дитині - сподобається (7р) ?

1101 
Свій


З нами з: 09.07.12
Востаннє: 24.11.16
Повідомлень: 62

2014-12-24 00:43  
tatn написано:

фільм цікавий ?
як дитині - сподобається (7р) ?

Картина класна, але на 7 років - здається, ранувато. У 8-річної дитині, яка дивилася картину за моєю спиною, зацікавлення надовго не вистачило. Хоча спробувати можна, раптом піде.

NataJah 
Новенький


З нами з: 16.08.15
Востаннє: 17.01.16
Повідомлень: 1

2016-01-17 23:27  
А НАМ ДУЖЕ СПОДОБАлось))
и возник вопросHappy) почему такие фильмы не популярны у нас? (дочка, 12 лет)

Ваш часовий пояс: GMT + 2 Години

Нова тема   Відповісти