Завантажити та скачати торренти українською


8 жінок / 8 femmes (2002) 720p Ukr/Fra | Sub Eng

Нові коментарі

Нова тема   Відповісти
Автор Повідомлення
Anonymous 







2014-12-09 15:47  
8 жінок / 8 femmes (2002) 720p Ukr/Fra | Sub Eng



Жанр: музичний, кримінальний, детектив, драма, комедія
Країна: Франція, Італія



Кінокомпанія: BIM, Canal+, Centre National de la Cinématographie (CNC), Fidélité Productions, France 2 Cinéma, Gimages 5, Local Films, Mars Distribution
Режисер: Франсуа Озон / François Ozon
Актори: Даніель Дарьйо / Danielle Darrieux, Катрін Деньов / Catherine Deneuve, Ізабель 'Юпер / Isabelle Huppert, Еммануель Беар / Emmanuelle Béart, Фані Ардан / Fanny Ardant, Вірджинія Ледуаєн / Virginie Ledoyen, Людівін Саньї / Ludivine Sagnier, Фірмін Рішар / Firmine Richard, Домінік Ламюр / Dominique Lamure

Сюжет:
Заметена снігом французька глушина. У маєток збирається сім'я для зустрічі Різдва. Але свято не відбудеться. Господаря будинку вбито. 8 жінок, близьких до господаря дому починають розслідування.

Кожна з них під підозрою. У кожної є мотив для вбивства. Кожен новий день розслідування відкриває багато сімейних таємниць, які таїлися під сімома замками.


Рейтинг MPAA: R - особам до 17 років обов'язкова присутність батьків або дорослого опікуна
Вікова категорія: 12+

Тривалість: 01:50:37
Якість: 720p [CRiSC]
Відео:
кодек:
розмір кадру: 1280 х 694
бітрейт: 5010 кбіт/с

Аудіо # 1: (Дніпропетровськ)
мова: українська
переклад: двоголосий закадровий
кодек: 5.1
бітрейт: 448 кбіт/с

Аудіо # 2:
мова: французька
переклад: оригінал
кодек: 5.1
бітрейт: 1509 кбіт/с

Аудіо # 3:
мова: французька
переклад: коментарі з François Ozon, Dominique Besnehard, Fanny Ardant, Ludivine Sagnier et Agathe Grau
кодек: 2.0
бітрейт: 768 кбіт/с

Субтитри:
мова: англійська
тип: програмні (м'які)
формат: *.srt

Збережено оригінальні розділи, як на Blu-ray.
MediaInfo
Код:
General
Unique ID                   : 186812739011177594130218182822667189754 (0x8C8AD3267366C597A2D373F1A2337DFA)
Complete name               : 8 femmes (2002) [Ukr,Fra sub.Eng] 720p [Hurtom & HDClub].mkv
Format                      : Matroska
Format version              : Version 4 / Version 2
File size                   : 5.98 GiB
Duration                    : 1h 50mn
Overall bit rate            : 7 738 Kbps
Movie name                  : 8 жінок / 8 femmes / 8 Women (2002) 720p [Hurtom & HDClub]
Encoded date                : UTC 2014-12-09 11:00:58
Writing application         : mkvmerge v7.3.0 ('Nouages') 64bit built on Oct 22 2014 18:53:34
Writing library             : libebml v1.3.0 + libmatroska v1.4.1
DURATION                    : 01:50:37.696000000
NUMBER_OF_FRAMES            : 207428
NUMBER_OF_BYTES             : 371710976
_STATISTICS_WRITING_APP     : mkvmerge v7.3.0 ('Nouages') 64bit built on Oct 22 2014 18:53:34
_STATISTICS_WRITING_DATE_UT : 2014-12-09 11:00:58
_STATISTICS_TAGS            : BPS DURATION NUMBER_OF_FRAMES NUMBER_OF_BYTES

Video
ID                          : 1
Format                      : AVC
Format/Info                 : Advanced Video Codec
Format profile              : [email protected]
Format settings, CABAC      : Yes
Format settings, ReFrames   : 9 frames
Codec ID                    : V_MPEG4/ISO/AVC
Duration                    : 1h 50mn
Bit rate                    : 5 010 Kbps
Width                       : 1 280 pixels
Height                      : 694 pixels
Display aspect ratio        : 1.85:1
Frame rate mode             : Constant
Frame rate                  : 24.000 fps
Color space                 : YUV
Chroma subsampling          : 4:2:0
Bit depth                   : 8 bits
Scan type                   : Progressive
Bits/(Pixel*Frame)          : 0.235
Stream size                 : 3.75 GiB (63%)
Title                       : 8 жінок / 8 femmes / 8 женщин (2002) 720p [CRiSC]
Writing library             : core 120 r2146 bcd41db
Encoding settings           : cabac=1 / ref=9 / deblock=1:-3:-3 / analyse=0x3:0x133 / me=tesa / subme=11 / psy=1 / psy_rd=0.90:0.05 / mixed_ref=1 / me_range=24 / chroma_me=1 / trellis=2 / 8x8dct=1 / cqm=0 / deadzone=21,11 / fast_pskip=0 / chroma_qp_offset=-3 / threads=12 / sliced_threads=0 / nr=0 / decimate=0 / interlaced=0 / bluray_compat=0 / constrained_intra=0 / bframes=10 / b_pyramid=2 / b_adapt=2 / b_bias=0 / direct=3 / weightb=1 / open_gop=0 / weightp=2 / keyint=250 / keyint_min=24 / scenecut=40 / intra_refresh=0 / rc_lookahead=40 / rc=2pass / mbtree=0 / bitrate=5010 / ratetol=1.0 / qcomp=0.60 / qpmin=0 / qpmax=69 / qpstep=4 / cplxblur=20.0 / qblur=0.5 / vbv_maxrate=50000 / vbv_bufsize=62500 / nal_hrd=none / ip_ratio=1.40 / pb_ratio=1.30 / aq=1:0.80
Language                    : French
Default                     : Yes
Forced                      : No
Color primaries             : BT.709
Transfer characteristics    : BT.709
Matrix coefficients         : BT.709
Color range                 : Limited
DURATION                    : 01:50:37.709000000
NUMBER_OF_FRAMES            : 159305
NUMBER_OF_BYTES             : 4156266247
_STATISTICS_WRITING_APP     : mkvmerge v7.3.0 ('Nouages') 64bit built on Oct 22 2014 18:53:34
_STATISTICS_WRITING_DATE_UT : 2014-12-09 11:00:58
_STATISTICS_TAGS            : BPS DURATION NUMBER_OF_FRAMES NUMBER_OF_BYTES

Audio #1
ID                          : 2
Format                      : AC-3
Format/Info                 : Audio Coding 3
Mode extension              : CM (complete main)
Format settings, Endianness : Big
Codec ID                    : A_AC3
Duration                    : 1h 50mn
Bit rate mode               : Constant
Bit rate                    : 448 Kbps
Channel(s)                  : 6 channels
Channel positions           : Front: L C R, Side: L R, LFE
Sampling rate               : 48.0 KHz
Bit depth                   : 16 bits
Compression mode            : Lossy
Stream size                 : 354 MiB (6%)
Title                       : DVO [34 Telekanal] 5.1 448 kbps [Hurtom-rooster]
Language                    : Ukrainian
Default                     : Yes
Forced                      : No

Audio #2
ID                          : 3
Format                      :
Format/Info                 : Digital Theater Systems
Mode                        : 16
Format settings, Endianness : Big
Codec ID                    : A_DTS
Duration                    : 1h 50mn
Bit rate mode               : Constant
Bit rate                    : 1 509 Kbps
Channel(s)                  : 6 channels
Channel positions           : Front: L C R, Side: L R, LFE
Sampling rate               : 48.0 KHz
Bit depth                   : 16 bits
Compression mode            : Lossy
Stream size                 : 1.17 GiB (20%)
Title                       : Original 5.1 1509 kbps
Language                    : French
Default                     : No
Forced                      : No

Audio #3
ID                          : 4
Format                      :
Format/Info                 : Digital Theater Systems
Mode                        : 16
Format settings, Endianness : Big
Codec ID                    : A_DTS
Duration                    : 1h 50mn
Bit rate mode               : Constant
Bit rate                    : 768 Kbps
Channel(s)                  : 2 channels
Channel positions           : Front: L R
Sampling rate               : 48.0 KHz
Bit depth                   : 16 bits
Compression mode            : Lossy
Stream size                 : 608 MiB (10%)
Title                       : Commentaire audio de: François Ozon, Dominique Besnehard, Fanny Ardant, Ludivine Sagnier et Agathe Grau 2.0 768 kbps
Language                    : French
Default                     : No
Forced                      : No

Text
ID                          : 5
Format                      : UTF-8
Codec ID                    : S_TEXT/UTF8
Codec ID/Info               : UTF-8 Plain Text
Language                    : English
Default                     : No
Forced                      : No

Menu
00:00:00.000                : en:00:00:00.000
00:10:01.792                : en:00:10:01.792
00:19:38.417                : en:00:19:38.417
00:29:01.917                : en:00:29:01.917
00:39:42.625                : en:00:39:42.625
00:48:25.542                : en:00:48:25.542
00:59:46.917                : en:00:59:46.917
01:09:12.958                : en:01:09:12.958
01:18:51.500                : en:01:18:51.500
01:26:23.792                : en:01:26:23.792
01:36:55.875                : en:01:36:55.875
01:46:54.542                : en:01:46:54.542





Джерела та подяки: &
ріп відео, оригінальні звук та субтитри - CRiSC (HDbits), sergey_n (HDClub); українська доріжка - rooster - зведення, sheva75 - запис з ТБ; українізований постер - ug_niki (всі - Гуртом).


ЗАЛИШАЙТЕСЬ ЯКОМОГА ДОВШЕ НА РОЗДАЧІ!

СКАЧАВ САМ - ДАЙ СКАЧАТИ ІНШИМ


Срібний реліз (на рейтинг впливає 50% завантаженого)
 Трекер:    Зареєстрований   

Завантажити / скачати фільм українською



відео для новачків



 Зареєстрований:   2014-12-09 15:47
 Розмір:   5.98 GB 
 Оцінка фільму:   3.6/10 (Голосів: 14)
   
Ваш часовий пояс: GMT + 2 Години

Нова тема   Відповісти