Завантажити та скачати торренти українською


Видимість гніву / The Upside of Anger (2005) 720p Ukr/Eng | Sub Eng

Нові коментарі

Нова тема   Відповісти
Автор Повідомлення
Anonymous 







2014-12-09 09:16  
Видимість гніву / The Upside of Anger (2005) 720p Ukr/Eng | Sub Eng



Жанр: драма, мелодрама, комедія
Країна: США, Німеччина, Велика Британія



Кінокомпанія: New Line Cinema, Media 8 Entertainment, VIP 2 Medienfonds, VIP 3 Medienfonds, MDP Filmproduktion, Sunlight Productions, Greentrees Films
Режисер: Майк Байндер / Mike Binder
Актори: Джоан Аллен / Joan Allen, Кевін Костнер / Kevin Costner, Еріка Крістенсен / Erika Christensen, Кері Рассел / Keri Russell, Алісія Вітт / Alicia Witt, Івен Рейчел Вуд / Evan Rachel Wood, Майк Байндер / Mike Binder та інші

Сюжет:
Мати та її свавільні чотири дочки раптово залишаються без чоловіка й батька. А друг сім'ї і колишній бейсболіст намагається допомогти їм у подоланні труднощів...


Рейтинг MPAA: R - особам до 17 років обов'язкова присутність батьків або дорослого опікуна
Вікова категорія: 16+

Тривалість: 01:56:47
Якість: 720p
Відео:
кодек:
розмір кадру: 1280 x 544
бітрейт: 4924 кбіт/с [crf=17]

Аудіо # 1:
мова: українська
переклад: двоголосий закадровий
кодек: 2.0
бітрейт: 192 кбіт/с

Аудіо # 2:
мова: англійська
переклад: оригінал
кодек: 5.1
бітрейт: 640 кбіт/с

Аудіо # 3:
мова: англійська
переклад: коментарі
кодек: 2.0
бітрейт: 94 кбіт/с

Субтитри:
мова: англійська
тип: програмні (м'які)
формат: *.srt

Збережено оригінальні розділи, як на Blu-ray.
MediaInfo
Код:
General
Unique ID                   : 198569168946147320273272532236066717399 (0x956307E5D24BC7FEA3BA56647D3D7ED7)
Complete name               : The Upside of Anger (2005) [Ukr,Eng sub.Eng] 720p [Hurtom & HDClub].mkv
Format                      : Matroska
Format version              : Version 4 / Version 2
File size                   : 4.77 GiB
Duration                    : 1h 56mn
Overall bit rate            : 5 852 Kbps
Movie name                  : Видимість гніву / The Upside of Anger (2005) 720p [Hurtom & HDClub]
Encoded date                : UTC 2014-12-09 08:30:05
Writing application         : mkvmerge v7.3.0 ('Nouages') 64bit built on Oct 22 2014 18:53:34
Writing library             : libebml v1.3.0 + libmatroska v1.4.1
DURATION                    : 01:50:23.867000000
NUMBER_OF_FRAMES            : 991
NUMBER_OF_BYTES             : 46442
_STATISTICS_WRITING_APP     : mkvmerge v7.3.0 ('Nouages') 64bit built on Oct 22 2014 18:53:34
_STATISTICS_WRITING_DATE_UT : 2014-12-09 08:30:05
_STATISTICS_TAGS            : BPS DURATION NUMBER_OF_FRAMES NUMBER_OF_BYTES

Video
ID                          : 1
Format                      : AVC
Format/Info                 : Advanced Video Codec
Format profile              : [email protected]
Format settings, CABAC      : Yes
Format settings, ReFrames   : 12 frames
Codec ID                    : V_MPEG4/ISO/AVC
Duration                    : 1h 56mn
Width                       : 1 280 pixels
Height                      : 544 pixels
Display aspect ratio        : 2.35:1
Frame rate mode             : Constant
Frame rate                  : 23.976 fps
Color space                 : YUV
Chroma subsampling          : 4:2:0
Bit depth                   : 8 bits
Scan type                   : Progressive
Title                       : Видимість гніву / The Upside of Anger / Видимость гнева (2005) 720p [HDClub-Vitaha94]
Writing library             : core 142 r2431kMod ac76440
Encoding settings           : cabac=1 / ref=12 / deblock=1:-3:-3 / analyse=0x3:0x133 / me=umh / subme=11 / psy=1 / fade_compensate=0.00 / psy_rd=1.00:0.00 / mixed_ref=1 / me_range=64 / chroma_me=1 / trellis=2 / 8x8dct=1 / cqm=0 / deadzone=21,11 / fast_pskip=0 / chroma_qp_offset=-2 / threads=12 / lookahead_threads=1 / sliced_threads=0 / nr=0 / decimate=0 / interlaced=0 / bluray_compat=0 / constrained_intra=0 / fgo=0 / bframes=6 / b_pyramid=2 / b_adapt=2 / b_bias=0 / direct=3 / weightb=1 / open_gop=0 / weightp=2 / keyint=250 / keyint_min=23 / scenecut=40 / intra_refresh=0 / rc_lookahead=40 / rc=crf / mbtree=0 / crf=17.0000 / qcomp=0.75 / qpmin=0 / qpmax=69 / qpstep=4 / vbv_maxrate=50000 / vbv_bufsize=62500 / crf_max=0.0 / nal_hrd=none / filler=0 / ip_ratio=1.35 / pb_ratio=1.25 / aq=3:0.60
Language                    : English
Default                     : Yes
Forced                      : No
Color primaries             : BT.709
Transfer characteristics    : BT.709
Matrix coefficients         : BT.709
Color range                 : Limited
DURATION                    : 01:56:46.458000000
NUMBER_OF_FRAMES            : 167987
NUMBER_OF_BYTES             : 4312142708
_STATISTICS_WRITING_APP     : mkvmerge v7.3.0 ('Nouages') 64bit built on Oct 22 2014 18:53:34
_STATISTICS_WRITING_DATE_UT : 2014-12-09 08:30:05
_STATISTICS_TAGS            : BPS DURATION NUMBER_OF_FRAMES NUMBER_OF_BYTES

Audio #1
ID                          : 2
Format                      : AC-3
Format/Info                 : Audio Coding 3
Mode extension              : CM (complete main)
Format settings, Endianness : Big
Codec ID                    : A_AC3
Duration                    : 1h 56mn
Bit rate mode               : Constant
Bit rate                    : 192 Kbps
Channel(s)                  : 2 channels
Channel positions           : Front: L R
Sampling rate               : 48.0 KHz
Bit depth                   : 16 bits
Compression mode            : Lossy
Stream size                 : 160 MiB (3%)
Title                       : DVO [K1] 2.0 192 kbps [Hurtom-patriot2305,Sando7]
Language                    : Ukrainian
Default                     : Yes
Forced                      : No

Audio #2
ID                          : 3
Format                      : AC-3
Format/Info                 : Audio Coding 3
Mode extension              : CM (complete main)
Format settings, Endianness : Big
Codec ID                    : A_AC3
Duration                    : 1h 56mn
Bit rate mode               : Constant
Bit rate                    : 640 Kbps
Channel(s)                  : 6 channels
Channel positions           : Front: L C R, Side: L R, LFE
Sampling rate               : 48.0 KHz
Bit depth                   : 16 bits
Compression mode            : Lossy
Stream size                 : 535 MiB (11%)
Title                       : Original 5.1 640 kbps
Language                    : English
Default                     : No
Forced                      : No

Audio #3
ID                          : 4
Format                      :
Format/Info                 : Advanced Audio Codec
Format profile              : LC
Codec ID                    : A_AAC
Duration                    : 1h 56mn
Channel(s)                  : 2 channels
Channel positions           : Front: L R
Sampling rate               : 48.0 KHz
Compression mode            : Lossy
Delay relative to video     : 20ms
Title                       : Commentary 2.0 94 kbps
Language                    : English
Default                     : No
Forced                      : No

Text
ID                          : 5
Format                      : UTF-8
Codec ID                    : S_TEXT/UTF8
Codec ID/Info               : UTF-8 Plain Text
Language                    : English
Default                     : No
Forced                      : No

Menu
00:00:00.000                : en:00:00:00.000
00:08:21.334                : en:00:08:21.334
00:16:09.093                : en:00:16:09.093
00:24:54.660                : en:00:24:54.660
00:33:03.064                : en:00:33:03.064
00:42:59.035                : en:00:42:59.035
00:50:40.746                : en:00:50:40.746
00:58:03.230                : en:00:58:03.230
01:07:01.309                : en:01:07:01.309
01:14:15.910                : en:01:14:15.910
01:22:03.168                : en:01:22:03.168
01:29:08.218                : en:01:29:08.218
01:38:09.050                : en:01:38:09.050
01:46:26.797                : en:01:46:26.797




Джерела та подяки: &
ріп відео, оригінальні звук та субтитри - Vitaha94 (HDClub); українська доріжка - patriot2305 - зведення, Sando7 - запис з ТБ; українізований постер - Zet95; фільмографії акторів - Віктор (всі - Гуртом).


ЗАЛИШАЙТЕСЬ ЯКОМОГА ДОВШЕ НА РОЗДАЧІ!

СКАЧАВ САМ - ДАЙ СКАЧАТИ ІНШИМ


 Трекер:    Зареєстрований   

Завантажити / скачати фільм українською



відео для новачків



 Зареєстрований:   2014-12-09 11:10
 Розмір:   4.77 GB 
 Оцінка фільму:   1.8/10 (Голосів: 11)
   
Інші релізи
   Видимість гніву / The Upside of Anger (2005) Sando7  2 / 0   1.45 GB   2014-06-13 21:56 
Ваш часовий пояс: GMT + 2 Години

Нова тема   Відповісти