Завантажити та скачати торренти українською


Пряма та явна загроза / Пряма та очевидна загроза / Clear and Present Danger (1994) 720p 2xUkr/Eng | Sub Ukr/Multi

Нові коментарі

Нова тема   Відповісти
Автор Повідомлення
Anonymous 







2014-12-08 22:31  
Пряма та явна загроза / Пряма та очевидна загроза / Clear and Present Danger (1994) 720p 2xUkr/Eng | Sub Ukr/Multi



Жанр: бойовик, трилер, драма
Країна: США



Кінокомпанія: Mace Neufeld Productions, Paramount Pictures
Режисер: Філліп Нойс / Phillip Noyce
Актори: Гаррісон Форд / Harrison Ford, Віллем Дефо / Willem Dafoe, Енн Арчер / Anne Archer, Хоакім де Альмейда / Joaquim de Almeida, Генрі Черни / Henry Czerny, Харріс Юлін / Harris Yulin, Дональд Моффат / Donald Moffat, Мігель Сандовал / Miguel Sandoval, Бенджамін Бретт / Benjamin Bratt, Реймонд Крус / Raymond Cruz та інші

Сюжет:
Джек Райан на цей раз виявляється на чолі відділу розвідки ЦРУ, і вхожий в Овальний кабінет Білого Дому. Він змушений боротися проти колумбійських наркоділків, не відаючи, що при потуранні президента США його помічник з національної безпеки і шеф ЦРУ проводять, за допомогою найманців, бойові операції в Колумбії.


Рейтинг MPAA: PG-13 - дітям до 13 років перегляд не бажаний
Вікова категорія: 12+

Тривалість: 02:21:15
Якість: 720p [CRiSC, Blu-ray CEE]
Відео:
кодек:
розмір кадру: 1280 х 568
бітрейт: 6217 кбіт/с [crf=15.2]

Аудіо # 1:
мова: українська
переклад: багатоголосий закадровий
кодек: 2.0
бітрейт: 192 кбіт/с

Аудіо # 2:
мова: українська
переклад: багатоголосий закадровий
кодек: 2.0
бітрейт: 192 кбіт/с

Аудіо # 3:
мова: англійська
переклад: оригінал
кодек: 5.1
бітрейт: 1510 кбіт/с

Субтитри #1:
мова: українська [Blu-ray CEE]
тип: програмні (м'які)
формат: *.srt

Субтитри #2-5:
мова: англійська, чеська, фінська, грецька
тип: програмні (м'які)
формат: *.srt
Збережено оригінальні розділи, як на Blu-ray.
MediaInfo
[code]General
Unique ID : 187742384186287618430859192267324103784 (0x8D3DDE3233633F98A6A1B1F346D59C68)
Complete name : Clear and Present Danger (1994) [2xUkr,Eng sub.Ukr,Multi] 720p [Hurtom & HDClub].mkv
Format : Matroska
Format version : Version 4 / Version 2
File size : 8.17 GiB
Duration : 2h 21mn
Overall bit rate : 8 276 Kbps
Movie name : Пряма та явна загроза / Пряма та очевидна загроза / Clear and Present Danger (1994) 720p [Hurtom & HDClub]
Encoded date : UTC 2014-12-08 19:40:22
Writing application : mkvmerge v7.3.0 ('Nouages') 64bit built on Oct 22 2014 18:53:34
Writing library : libebml v1.3.0 + libmatroska v1.4.1
DURATION : 02:21:15.456000000
NUMBER_OF_FRAMES : 264858
NUMBER_OF_BYTES : 203410944
_STATISTICS_WRITING_APP : mkvmerge v7.3.0 ('Nouages') 64bit built on Oct 22 2014 18:53:34
_STATISTICS_WRITING_DATE_UT : 2014-12-08 19:40:22
_STATISTICS_TAGS : BPS DURATION NUMBER_OF_FRAMES NUMBER_OF_BYTES

Video
ID : 1
Format : AVC
Format/Info : Advanced Video Codec
Format profile : [email protected]
Format settings, CABAC : Yes
Format settings, ReFrames : 11 frames
Codec ID : V_MPEG4/ISO/AVC
Duration : 2h 21mn
Bit rate : 6 217 Kbps
Width : 1 280 pixels
Height : 568 pixels
Display aspect ratio : 2.25:1
Frame rate mode : Constant
Frame rate : 23.976 fps
Color space : YUV
Chroma subsampling : 4:2:0
Bit depth : 8 bits
Scan type : Progressive
Bits/(Pixel*Frame) : 0.357
Stream size : 6.13 GiB (75%)
Title : Пряма та явна загроза / Пряма та очевидна загроза / Clear and Present Danger / Прямая и явная угроза (1994) 720p [CRiSC]
Writing library : core 142 r2431+42 c69a006 tMod [[email protected]:2:0 X86_64]
Encoding settings : cabac=1 / ref=11 / deblock=1:-3:-3 / analyse=0x3:0x133 / me=umh / subme=10 / psy=1 / fade_compensate=0.00 / psy_rd=1.05:0.00 / mixed_ref=1 / me_range=24 / chroma_me=1 / trellis=2 / 8x8dct=1 / cqm=0 / deadzone=21,11 / fast_pskip=1 / chroma_qp_offset=-2 / threads=12 / lookahead_threads=2 / sliced_threads=0 / nr=0 / decimate=1 / interlaced=0 / bluray_compat=0 / constrained_intra=0 / fgo=0 / bframes=8 / b_pyramid=2 / b_adapt=2 / b_bias=0 / direct=3 / weightb=1 / open_gop=0 / weightp=2 / keyint=250 / keyint_min=23 / scenecut=40 / intra_refresh=0 / rc_lookahead=60 / rc=crf / mbtree=0 / crf=15.2000 / qcomp=0.65 / qpmin=0:0:0 / qpmax=69:69:69 / qpstep=4 / vbv_maxrate=62500 / vbv_bufsize=78125 / crf_max=0.0 / nal_hrd=none / filler=0 / ip_ratio=1.30 / pb_ratio=1.20 / aq=4:0.85 / aq-sensitivity=10.00 / aq-factor=1.00:1.00:1.00 / aq2=0 / aq3=0
Language : English
Default : Yes
Forced : No
Matrix coefficients : BT.709
Color range : Limited
DURATION : 02:21:15.467000000
NUMBER_OF_FRAMES : 203208
NUMBER_OF_BYTES : 6757765835
_STATISTICS_WRITING_APP : mkvmerge v7.3.0 ('Nouages') 64bit built on Oct 22 2014 18:53:34
_STATISTICS_WRITING_DATE_UT : 2014-12-08 19:40:22
_STATISTICS_TAGS : BPS DURATION NUMBER_OF_FRAMES NUMBER_OF_BYTES

Audio #1
ID : 2
Format : AC-3
Format/Info : Audio Coding 3
Mode extension : CM (complete main)
Format settings, Endianness : Big
Codec ID : A_AC3
Duration : 2h 21mn
Bit rate mode : Constant
Bit rate : 192 Kbps
Channel(s) : 2 channels
Channel positions : Front: L R
Sampling rate : 48.0 KHz
Bit depth : 16 bits
Compression mode : Lossy
Stream size : 194 MiB (2%)
Title : MVO [Inter] 2.0 192 kbps [Hurtom-taraskill1]
Language : Ukrainian
Default : Yes
Forced : No

Audio #2
ID : 3
Format : AC-3
Format/Info : Audio Coding 3
Mode extension : CM (complete main)
Format settings, Endianness : Big
Codec ID : A_AC3
Duration : 2h 21mn
Bit rate mode : Constant
Bit rate : 192 Kbps
Channel(s) : 2 channels
Channel positions : Front: L R
Sampling rate : 48.0 KHz
Bit depth : 16 bits
Compression mode : Lossy
Stream size : 194 MiB (2%)
Title : MVO [ICTV] 2.0 192 kbps [Hurtom-taraskill1]
Language : Ukrainian
Default : No
Forced : No

Audio #3
ID : 4
Format :
Format/Info : Digital Theater Systems
Mode : 16
Format settings, Endianness : Big
Codec ID : A_DTS
Duration : 2h 21mn
Bit rate mode : Constant
Bit rate : 1 510 Kbps
Channel(s) : 6 channels
Channel positions : Front: L C R, Side: L R, LFE
Sampling rate : 48.0 KHz
Bit depth : 24 bits
Compression mode : Lossy
Stream size : 1.49 GiB (18%)
Title : Original 5.1 1509 kbps
Language : English
Default : No
Forced : No

Text #1
ID : 5
Format : UTF-8
Codec ID : S_TEXT/UTF8
Codec ID/Info : UTF-8 Plain Text
Title : Ukr Full [BD CEE]
Language : Ukrainian
Default : No
Forced : No

Text #2
ID : 6
Format : UTF-8
Codec ID : S_TEXT/UTF8
Codec ID/Info : UTF-8 Plain Text
Title : Eng full
Language : English
Default : No
Forced : No

Text #3
ID : 7
Format : UTF-8
Codec ID : S_TEXT/UTF8
Codec ID/Info : UTF-8 Plain Text
Title : Czech full
Language : Czech
Default : No
Forced : No

Text #4
ID : 8
Format : UTF-8
Codec ID : S_TEXT/UTF8
Codec ID/Info : UTF-8 Plain Text
Title : Finnish full
Language : Finnish
Default : No
Forced : No

Text #5
ID : 9
Format : UTF-8
Codec ID : S_TEXT/UTF8
Codec ID/Info : UTF-8 Plain Text
Title : Greek full
Language : Greek
Default : No
Forced : No

Menu
00:00:00.000 : :00:00:00.000
00:07:51.637 : :00:07:51.637
00:12:20.823 : :00:12:20.823
00:15:48.072 : :00:15:48.072
00:18:47.042 : :00:18:47.042
00:25:38.036 : :00:25:38.036
00:30:02.550 : :00:30:02.550
00:34:02.415 : :00:34:02.415
00:40:07.154 : :00:40:07.154
00:49:25.420 : :00:49:25.420
00:52:49.583 : :00:52:49.583
01:02:34.375 : :01:02:34.375
01:08:45.538 : :01:08:45.538
01:11:21.902 : :01:11:21.902
01:20:50.804 : :01:20:50.804
01:25:51.145 : :01:25:51.145
01:29:03.755 : :01:29:03.755
01:36:26.739 : :01:36:26.739
01:43:23.780 : :01:43:23.780
01:46:47.984 : :01:46:47.984
01:54:21.229 : :01:54:21.229
02:01:07.093 : :02:01:07.093
02:10:17.476 : :02:10:17.476[code]





Джерела та подяки: &
ріп відео, оригінальні звук та субтитри - CRiSC (HDbits), madoff (HDClub); українські доріжки - taraskill1 - зведення, olgaya, POMEO - запис з ТБ (всі - Гуртом).


ЗАЛИШАЙТЕСЬ ЯКОМОГА ДОВШЕ НА РОЗДАЧІ!

СКАЧАВ САМ - ДАЙ СКАЧАТИ ІНШИМ


Срібний реліз (на рейтинг впливає 50% завантаженого)
 Трекер:    Зареєстрований   

Завантажити / скачати фільм українською



відео для новачків



 Зареєстрований:   2014-12-08 22:31
 Розмір:   8.17 GB 
 Оцінка фільму:   2.8/10 (Голосів: 13)
   
waldi-hurtom 
VIP


З нами з: 07.10.12
Востаннє: 09.12.16
Повідомлень: 613

2014-12-19 13:16  
Бувають фільми, що з часом не втрачають свого шарму. Цей випадок, на жаль, інший. В 90-і це було круто, сьогодні, щоб не образити Гарісона Форда, не вражає. Занадто сильний контраст між хорошими і поганими хлопцями, без напівтонів. Дещо примітивно. 6 з 10.
Ваш часовий пояс: GMT + 2 Години

Нова тема   Відповісти