Завантажити та скачати торренти українською


Світанок планети мавп / Dawn of the Planet of the Apes (2014) 1080p 3D [Half OverUnder] Ukr/Eng | Sub Eng

Нові коментарі

Нова тема   Відповісти
Автор Повідомлення
3d_reliz 
Частий відвідувач


З нами з: 28.09.14
Востаннє: 15.03.16
Повідомлень: 35

2014-12-07 18:47  
Світанок планети мавп / Dawn of the Planet of the Apes (2014) 1080p 3D [Half OverUnder] Ukr/Eng | Sub Eng

Світанок планети мавп / Dawn of the Planet of the Apes (2014) 1080p 3D [Half OverUnder] Ukr/Eng | Sub Eng

«Моліться за мир, готуйтеся до війни»

Жанр: драма, фантастика, бойовик
Країна: США



Кінокомпанія: Chernin Entertainment, Ingenious Media, TSG Entertainment
Режисер: Метт Рівз
Актори: Енді Серкіс, Джейсон Кларк, Гарі Олдман, Кері Расселл, Тобі Кеббелл, Коді, Сміт-МакФі, Кірк Асеведо, Нік Терстон, Террі Нотар, Карін Коновал

Сюжет:
Чисельність генетично модифікованих мавп, очолюваних Цезарем, продовжує збільшуватися, але мавпам погрожують люди, яким вдалося вижити під час жахливої ​​епідемії десятирічної давності. Спочатку між суперниками встановлюється крихкий мир, але він виявляється недовговічним. Мавпи і люди знаходяться на межі війни, в ході якої стане зрозуміло, хто з них в майбутньому стане безроздільно правити планетою.


Тривалість: 02:10:24
Якість:
Відео:
кодек:
розмір кадру: 1920 х 1080
бітрейт: 13.2 Мб/с

Аудіо # 1:
мова: українська
переклад: професійний дубльований
кодек: 5.1
бітрейт: 448 кб/с

Аудіо # 2:
мова: англійська
переклад: оригінал
кодек: 5.1
бітрейт: 1509 кб/с

Джерело озвучення:


Субтитри:
мова: українська (форсовані) (завантажити)
тип: програмні (м'які)
формат: *.srt

Субтитри:
мова: українська (повні) (завантажити)
тип: програмні (м'які)
формат: *.srt

Субтитри:
мова: англійська
тип: програмні (м'які)
формат: *.srt
MediaInfo
General
Unique ID : 181611939603123569879383204789826098048 (0x88A12FF1302F3867AE7AE96B02CC1380)
Complete name : E:\3D_film\Dawn of the Planet of the Apes (2014) 1080p 3D [UKR_ENG] sub eng [Hurtom].mkv
Format : Matroska
Format version : Version 1
File size : 14.0 GiB
Duration : 2h 10mn
Overall bit rate : 15.4 Mbps
Movie name : Планета.обезьян.Революция_ Dawn.of.the.Planet.of.the.Apes.2014..HOU.3D1080p
Encoded date : UTC 2014-12-06 14:25:13
Writing application : mkvmerge v2.4.1 ('Use Me') built on Dec 5 2008 18:30:05
Writing library : libebml v0.7.7 + libmatroska v0.8.1
Attachment : Yes / Yes
Video #1
ID : 1
Format : AVC
Format/Info : Advanced Video Codec
Format profile : [email protected]
Format settings, CABAC : Yes
Format settings, ReFrames : 4 frames
Codec ID : V_MPEG4/ISO/AVC
Duration : 2h 10mn
Bit rate : 13.2 Mbps
Width : 1 920 pixels
Height : 1 080 pixels
Display aspect ratio : 16:9
Frame rate mode : Constant
Frame rate : 23.976 fps
Color space : YUV
Chroma subsampling : 4:2:0
Bit depth : 8 bits
Scan type : Progressive
Bits/(Pixel*Frame) : 0.265
Stream size : 12.0 GiB (85%)
Title : Планета.обезьян.Революция_ Dawn.of.the.Planet.of.the.Apes.2014..HOU.3D1080p
Writing library : core 142 r2389 956c8d8
Encoding settings : cabac=1 / ref=4 / deblock=1:-3:-3 / analyse=0x3:0x113 / me=umh / subme=10 / psy=1 / psy_rd=1.00:0.00 / mixed_ref=1 / me_range=32 / chroma_me=1 / trellis=2 / 8x8dct=1 / cqm=0 / deadzone=21,11 / fast_pskip=0 / chroma_qp_offset=-4 / threads=24 / lookahead_threads=2 / sliced_threads=0 / nr=0 / decimate=0 / interlaced=0 / bluray_compat=0 / constrained_intra=0 / bframes=6 / b_pyramid=2 / b_adapt=2 / b_bias=0 / direct=3 / weightb=1 / open_gop=0 / weightp=2 / keyint=250 / keyint_min=23 / scenecut=40 / intra_refresh=0 / rc=crf / mbtree=0 / crf=18.0 / qcomp=0.80 / qpmin=0 / qpmax=69 / qpstep=4 / frame-packing=4 / ip_ratio=1.30 / pb_ratio=1.30 / aq=2:0.90
Default : Yes
Forced : No
Audio #2
ID : 2
Format : AC-3
Format/Info : Audio Coding 3
Mode extension : CM (complete main)
Format settings, Endianness : Big
Codec ID : A_AC3
Duration : 2h 10mn
Bit rate mode : Constant
Bit rate : 448 Kbps
Channel(s) : 6 channels
Channel positions : Front: L C R, Side: L R, LFE
Sampling rate : 48.0 KHz
Bit depth : 16 bits
Compression mode : Lossy
Stream size : 418 MiB (3%)
Title : Дубляж
Language : Ukrainian
Default : Yes
Forced : No
Audio #3
ID : 3
Format :
Format/Info : Digital Theater Systems
Format profile : ES
Mode : 16
Format settings, Endianness : Big
Codec ID : A_DTS
Duration : 2h 10mn
Bit rate mode : Constant
Bit rate : 1 509 Kbps
Channel(s) : 6 channels
Channel positions : Front: L C R, Side: L R, LFE
Sampling rate : 48.0 KHz
Bit depth : 24 bits
Compression mode : Lossy
Delay relative to video : 11ms
Stream size : 1.37 GiB (10%)
Title : English
Language : English
Default : No
Forced : No
Text #4
ID : 4
Format : VobSub
Muxing mode : zlib
Codec ID : S_VOBSUB
Codec ID/Info : The same subtitle format used on DVDs
Title : English (3D PGS)
Language : English
Default : Yes
Forced : No
Скріншоти




Цікаві факти про фільм
Режисер першого фільму Руперт Уайатт вибув з проекту в 2012 році, коли порахував, що йому не вистачить часу на те, щоб реалізувати всі свої ідеї в сіквелі. Разом з постановником від продовження відмовився і Джеймс Франко.
Террі Нотарі раніше працював тренером по постановці рухів у фільмі «Планета мавп» (2001).
На додаток до мавп компанія Weta Digital, відповідальна за візуальні ефекти, створила та інших тварин: стадо оленів, ведмедя грізлі та комп'ютерних двійників живих коней. Олені були створені за допомогою анімації по ключовим кадрам і спеціального програмного забезпечення для створення натовпу - «MASSIVE», ведмідь був створений також за допомогою анімації по ключовим кадрам. При створенні коней використовувалася ще й технологія захоплення руху.
Чоловік Джуді Грір великий фанат фільму «Планета мавп» (1968). У своєму інтерв'ю Грір розповіла, що на їх весіллі навіть фігурки нареченого і нареченої на верхівці весільного торта були виконані у вигляді шимпанзе, а в барі, коли прийшов час коктейлів, на двох телевізорах показували оригінальний фільм і «Повстання планети мавп» (2011).
Гарі Олдман розглядався на роль генерала Тейде у фільмі «Планета мавп» (2001). У цьому фільмі він виконав роль Дрейфуса.
Ім'я персонажа Джуді Грір, Корнелія - це посилання до шимпанзе на ім'я Корнеліус з фільму «Планета мавп» (1968), якого зіграв Родді МакДауелл.
Енді Серкіс, Террі нотар і Карін Коновал - єдині актори, які повторили свої ролі з фільму «Повстання планети мавп» (2011).
Книга, яку Олександр (Коді Сміт-МакФі) дає Морісу - це «Чорна діра» (Black Hole) Чарльза Бернса. Це історія про захворювання, що передаються статевим шляхом серед американських підлітків, яке викликало фізичні мутації, і в результаті підлітки ставали ізгоями і жили в лісі. Сюжет книги в чому схожий з сюжетом історії про «Планеті мавп».
Це перший фільм про «Планету мавп» знятий і випущений у форматі 3D.
Орангутан по імені Моріс - це посилання до Морісу Евансу, який зіграв роль доктора Заюса в оригінальному фільмі «Планета мавп» (1968).
Це перший фільм про «Планету мавп» знятий у форматі 1,85: 1.
Кілька разів згадується у фільмі фраза «Мавпа не вб'є іншу мавпу», не що інше як алюзія на одну із заповідей з «Скотний двір» Джорджа Оруелла: «Тварина не вб'є іншу тварину».
Як знімали фільм


Джерело: &
Особиста оцінка: 8 - мені сподобалося
Особиста оцінка якості 3D: 9 - дуже якісне
3D перевірено з флешки на внутрішньому плеєрі телевізора LG



 Трекер:    Зареєстрований   

Завантажити / скачати фільм українською



відео для новачків



 Зареєстрований:   2014-12-07 18:47
 Розмір:   14.05 GB 
 Оцінка фільму:   7.7/10 (Голосів: 3)
   
3d_reliz 
Частий відвідувач


З нами з: 28.09.14
Востаннє: 15.03.16
Повідомлень: 35

2014-12-07 18:48  
хто має укр субтитри, киньте сслику я добавлю.
igor911 
Відео Гуртом
Відео Гуртом


З нами з: 18.01.08
Востаннє: 04.12.16
Повідомлень: 5128

2014-12-07 21:52  
Субтитри та доріжки можеш шукати сам на http://dorizhky.hurtom.com/ (посилання "Доріжки" зверху зліва в шапці Толоки):

http://dorizhky.hurtom.com/SUBTITLES%20UKR/Dawn%20of%20the%20Planet%20of%20the%20Apes.%282014%29.02h10m24s.23.976fps.UKR.FORCED.srt

http://dorizhky.hurtom.com/SUBTITLES%20UKR/Dawn%20of%20the%20Planet%20of%20the%20Apes.%282014%29.02h10m24s.23.976fps.UKR.srt

Додано через 3 хвилини 9 секунд:

Українські субтитри в папці SUBTITLES UKR

Ваш часовий пояс: GMT + 2 Години

Нова тема   Відповісти