Завантажити та скачати торренти українською


Наввипередки зі смертю / Dead Man Running (2009) 720p Ukr/Eng | Sub Eng

Нові коментарі

Нова тема   Відповісти
Автор Повідомлення
Anonymous 







2014-12-07 17:34  
Наввипередки зі смертю / Dead Man Running (2009) 720p Ukr/Eng | Sub Eng



Оригінальний постер


повнорозмірне зображення відкриється по кліку (з натиснутим CTRL чи кліком середньою кнопкою мишки - у іншій вкладці)


Жанр: бойовик, трилер, драма, кримінальний
Країна: Велика Британія



Кінокомпанія: Next Generation TV & Film, P&T Productions
Режисер: Алекс Де Ракофф / Alex De Rakoff
Продюсери: Піккі Фіарон / Pikki Fearon, Ендрю Чепман / Andrew Chapman, Ешлі Коул / Ashley Cole, Ріо Фердінанд / Rio Ferdinand
Актори: Тамер Гассан / Tamer Hassan, Денні Даєр / Danny Dyer, "Фіфті Сент" (Кертіс Джексон) / 50 Cent, Монет Мазур / Monet Mazur, Бренда Блетін / Brenda Blethyn, Блейк Рітсон / Blake Ritson, Бронсон Вебб / Bronson Webb, Джо Еґан / Joe Egan, Есме Бьянко / Esmé Bianco та інші

Сюжет:
Нік намагається зав'язати з криміналом - після повернення з в'язниці відкриває з другом туристичне агенство. Але справи йдуть не дуже, а повертати борг лихварю треба - йому дають 24 години на пошуки 100 000 фунтів. Якщо він їх не знайде, то загине він сам та його матір. Ніку з компаньйоном доводиться пригадати та спробувати всі сфери криміналу за добу, щоб дістати необхідну суму.


Рейтинг MPAA: R - особам до 17 років обов'язкова присутність батьків або дорослого опікуна
Вікова категорія: 16+

Тривалість: 01:31:34
Якість: 720p [CHD]
Відео:
кодек:
розмір кадру: 1280 х 546
бітрейт: 5313 кбіт/с

Аудіо # 1:
мова: українська
переклад: багатоголосий закадровий - Компанія "Кіт"
кодек: 2.0
бітрейт: 192 кбіт/с

Аудіо # 2:
мова: англійська
переклад: оригінал
кодек: 5.1
бітрейт: 1510 кбіт/с

Субтитри:
мова: англійська
тип: програмні (м'які)
формат: *.srt
MediaInfo
Код:
General
Unique ID                   : 179400681292959490714946454396551306889 (0x86F7507D78F4B976A475F8AA50B41E89)
Complete name               : Dead Man Running (2009) [Ukr,Eng sub.Eng] 720p [Hurtom].mkv
Format                      : Matroska
Format version              : Version 4 / Version 2
File size                   : 4.49 GiB
Duration                    : 1h 31mn
Overall bit rate            : 7 016 Kbps
Movie name                  : Наввипередки зі смертю / Dead Man Running (2009) [Ukr,Eng sub.Eng] 720p [Hurtom]
Encoded date                : UTC 2015-09-07 16:07:43
Writing application         : mkvmerge v8.3.0 ('Over the Horizon') 64bit
Writing library             : libebml v1.3.1 + libmatroska v1.4.2
Attachements                : cover.jpg
DURATION                    : 01:31:34.784000000
NUMBER_OF_FRAMES            : 171712
NUMBER_OF_BYTES             : 131874816
_STATISTICS_WRITING_APP     : mkvmerge v8.3.0 ('Over the Horizon') 64bit
_STATISTICS_WRITING_DATE_UT : 2015-09-07 16:07:43
_STATISTICS_TAGS            : BPS DURATION NUMBER_OF_FRAMES NUMBER_OF_BYTES

Video
ID                          : 1
Format                      : AVC
Format/Info                 : Advanced Video Codec
Format profile              : [email protected]
Format settings, CABAC      : Yes
Format settings, ReFrames   : 8 frames
Codec ID                    : V_MPEG4/ISO/AVC
Duration                    : 1h 31mn
Bit rate                    : 5 313 Kbps
Width                       : 1 280 pixels
Height                      : 546 pixels
Display aspect ratio        : 2.35:1
Frame rate mode             : Constant
Frame rate                  : 23.976 fps
Color space                 : YUV
Chroma subsampling          : 4:2:0
Bit depth                   : 8 bits
Scan type                   : Progressive
Bits/(Pixel*Frame)          : 0.317
Stream size                 : 3.31 GiB (74%)
Title                       : Наввипередки зі смертю / Dead Man Running / Наперегонки со смертью (2009) 720p [CHD-yyhh]
Writing library             : core 88 r1471 1144615
Encoding settings           : cabac=1 / ref=8 / deblock=1:-3:-3 / analyse=0x3:0x113 / me=umh / subme=9 / psy=1 / psy_rd=1.00:0.10 / mixed_ref=1 / me_range=32 / chroma_me=1 / trellis=2 / 8x8dct=1 / cqm=2 / deadzone=21,11 / fast_pskip=0 / chroma_qp_offset=-2 / threads=6 / sliced_threads=0 / nr=0 / decimate=1 / mbaff=0 / constrained_intra=0 / bframes=3 / b_pyramid=2 / b_adapt=2 / b_bias=0 / direct=3 / wpredb=1 / wpredp=2 / keyint=250 / keyint_min=25 / scenecut=40 / intra_refresh=0 / rc_lookahead=60 / rc=2pass / mbtree=1 / bitrate=5313 / ratetol=1.0 / qcomp=0.60 / qpmin=10 / qpmax=51 / qpstep=4 / cplxblur=20.0 / qblur=0.5 / vbv_maxrate=50000 / vbv_bufsize=50000 / ip_ratio=1.40 / aq=1:0.70
Language                    : English
Default                     : Yes
Forced                      : No
DURATION                    : 01:31:34.777000000
NUMBER_OF_FRAMES            : 131743
NUMBER_OF_BYTES             : 3647822216
_STATISTICS_WRITING_APP     : mkvmerge v8.3.0 ('Over the Horizon') 64bit
_STATISTICS_WRITING_DATE_UT : 2015-09-07 16:07:43
_STATISTICS_TAGS            : BPS DURATION NUMBER_OF_FRAMES NUMBER_OF_BYTES

Audio #1
ID                          : 2
Format                      : AC-3
Format/Info                 : Audio Coding 3
Mode extension              : CM (complete main)
Format settings, Endianness : Big
Codec ID                    : A_AC3
Duration                    : 1h 31mn
Bit rate mode               : Constant
Bit rate                    : 192 Kbps
Channel(s)                  : 2 channels
Channel positions           : Front: L R
Sampling rate               : 48.0 KHz
Compression mode            : Lossy
Stream size                 : 126 MiB (3%)
Title                       : MVO [Kit] 2.0 192 kbps [Hurtom-kicyunya]
Language                    : Ukrainian
Default                     : Yes
Forced                      : No

Audio #2
ID                          : 3
Format                      :
Format/Info                 : Digital Theater Systems
Mode                        : 16
Format settings, Endianness : Big
Codec ID                    : A_DTS
Duration                    : 1h 31mn
Bit rate mode               : Constant
Bit rate                    : 1 510 Kbps
Channel(s)                  : 6 channels
Channel positions           : Front: L C R, Side: L R, LFE
Sampling rate               : 48.0 KHz
Bit depth                   : 24 bits
Compression mode            : Lossy
Stream size                 : 989 MiB (22%)
Title                       : Original 5.1 1510 kbps
Language                    : English
Default                     : No
Forced                      : No

Text
ID                          : 4
Format                      : UTF-8
Codec ID                    : S_TEXT/UTF8
Codec ID/Info               : UTF-8 Plain Text
Language                    : English
Default                     : No
Forced                      : No




Джерела та подяки:
ріп відео - yyhh (CHD); українська доріжка та постер - kicyunya (Гуртом).

Особиста оцінка: 7 - любителям легкого кримінального жанру та англійського кіно повинно сподобатись

ЗАЛИШАЙТЕСЬ ЯКОМОГА ДОВШЕ НА РОЗДАЧІ!

СКАЧАВ САМ - ДАЙ СКАЧАТИ ІНШИМ


 Трекер:    Зареєстрований   

Завантажити / скачати фільм українською



відео для новачків



 Зареєстрований:   2015-09-07 20:12
 Розмір:   4.49 GB 
 Оцінка фільму:   4/10 (Голосів: 15)
   
Інші релізи
bot 
робот


З нами з: 30.09.07
Востаннє: 26.05.05
Повідомлень: 16031

2015-09-07 20:09  
Тему перенесено з Анонси релізів до форуму Фільми в HD


igor911

Maters 
VIP


З нами з: 27.03.12
Востаннє: 08.12.16
Повідомлень: 1162

2015-09-13 11:52  
Коул і Фердінанд продюсери? Шось нове )))
Ваш часовий пояс: GMT + 2 Години

Нова тема   Відповісти