Завантажити та скачати торренти українською


Одного разу в Голлівуді / What Just Happened (2008) 720p Ukr/Eng | Sub Eng

Нові коментарі

Нова тема   Відповісти
Автор Повідомлення
Anonymous 







2014-12-07 15:26  
Одного разу в Голлівуді / What Just Happened (2008) 720p Ukr/Eng | Sub Eng



Оригінальний постер


Жанр: драма, комедія
Країна: США



Кінокомпанія: 2929 Productions, Art Linson Productions, Linson Entertainment, Tribeca Productions
Режисер: Баррі Левінсон / Barry Levinson
Актори: Роберт Де Ніро / Robert De Niro, Джон Туртурро / John Turturro, Кетрін Кінер / Catherine Keener, Робін Райт / Robin Wright, Стенлі Тучі / Stanley Tucci, Шон Пен / Sean Penn, Брюс Вілліс / Bruce Willis, Майкл Вінкотт / Michael Wincott, Крістен Стюарт / Kristen Stewart, Пітер Джакобсон / Peter Jacobson та інші

Сюжет:
Стрічка розповідає про нелегкі будні крупного продюсера, що намагається закінчити зйомки багатостраждальної стрічки. Голлівуд – місце не для слабаків, і в цьому йому в черговий раз доведеться переконатися на власній шкурі.
Підпільна імперія


Рейтинг MPAA: R - особам до 17 років обов'язкова присутність батьків або дорослого опікуна
Вікова категорія: 16+

Тривалість: 01:43:59
Якість: 720p
Відео:
кодек:
розмір кадру: 1280 х 532
бітрейт: 7296 кбіт/с

Аудіо # 1:
мова: українська
переклад: багатоголосий закадровий - Tretyakoff production на замовлення Aurora Distribution
кодек: 2.0
бітрейт: 192 кбіт/с
Інформація про озвучення
Фільм перекладено і озвучено на студії Tretyakoff production на замовлення Aurora Distribution
Ролі озвучили: Роберт Де Ніро/Бен — Олег Лепенець, Майкл Вінкот/Джеремі Брунелл — Михайло Жонін, Сем Левінсон/Карл — Дмитро Завадський, Юлія Перенчук і Людмила Ардельян?

Телеканали 1+1 та ТРК "Україна" транслювали з цією ж озвучкою.
Аудіо # 2:
мова: англійська
переклад: оригінал
кодек: 5.1
бітрейт: 1509 кбіт/с

Аудіо # 3:
мова: англійська
переклад: коментарі сценариста Арта Лінсона та режисера Баррі Левінсона
кодек: 2.0
бітрейт: 224 кбіт/с

Субтитри:
мова: англійська
тип: програмні (м'які)
формат: *.srt
MediaInfo
Код:
General
Unique ID                                : 204462735965317532950050939384411512695 (0x99D2172FA41B51B3BAAB5F2C1F84DF77)
Complete name                            : What Just Happened (2008) [Ukr,Eng sub.Eng] 720p [Hurtom & HDClub].mkv
Format                                   : Matroska
Format version                           : Version 4 / Version 2
File size                                : 6.70 GiB
Duration                                 : 1h 43mn
Overall bit rate                         : 9 224 Kbps
Movie name                               : Одного разу в Голлівуді / What Just Happened (2008) 720p [Hurtom & HDClub]
Encoded date                             : UTC 2014-12-07 11:11:06
Writing application                      : mkvmerge v7.2.0 ('On Every Street') 64bit built on Sep 13 2014 15:52:10
Writing library                          : libebml v1.3.0 + libmatroska v1.4.1
DURATION                                 : 01:43:59.168000000
NUMBER_OF_FRAMES                         : 194974
NUMBER_OF_BYTES                          : 149740032
_STATISTICS_WRITING_APP                  : mkvmerge v7.2.0 ('On Every Street') 64bit built on Sep 13 2014 15:52:10
_STATISTICS_WRITING_DATE_UTC             : 2014-12-07 11:11:06
_STATISTICS_TAGS                         : BPS DURATION NUMBER_OF_FRAMES NUMBER_OF_BYTES

Video
ID                                       : 1
Format                                   : AVC
Format/Info                              : Advanced Video Codec
Format profile                           : [email protected]
Format settings, CABAC                   : Yes
Format settings, ReFrames                : 8 frames
Codec ID                                 : V_MPEG4/ISO/AVC
Duration                                 : 1h 43mn
Bit rate                                 : 7 296 Kbps
Width                                    : 1 280 pixels
Height                                   : 532 pixels
Display aspect ratio                     : 2.40:1
Frame rate mode                          : Constant
Frame rate                               : 23.976 fps
Color space                              : YUV
Chroma subsampling                       : 4:2:0
Bit depth                                : 8 bits
Scan type                                : Progressive
Bits/(Pixel*Frame)                       : 0.447
Stream size                              : 5.17 GiB (77%)
Title                                    : Одного разу в Голлівуді / What Just Happened / Однажды в Голливуде (2008) 720p [HDClub-Dreamcatcher]
Writing library                          : core 66 r1112M f43e22a
Encoding settings                        : cabac=1 / ref=8 / deblock=1:-3:-3 / analyse=0x3:0x113 / me=umh / subme=9 / psy_rd=1.1:0.0 / mixed_ref=1 / me_range=32 / chroma_me=1 / trellis=2 / 8x8dct=1 / cqm=0 / deadzone=21,11 / chroma_qp_offset=-2 / threads=6 / nr=0 / decimate=1 / mbaff=0 / bframes=3 / b_pyramid=1 / b_adapt=2 / b_bias=0 / direct=3 / wpredb=1 / keyint=250 / keyint_min=25 / scenecut=40(pre) / rc=2pass / bitrate=7296 / ratetol=1.0 / qcomp=0.60 / qpmin=10 / qpmax=51 / qpstep=4 / cplxblur=20.0 / qblur=0.5 / ip_ratio=1.40 / pb_ratio=1.30 / aq=1:0.70
Language                                 : English
Default                                  : Yes
Forced                                   : No
DURATION                                 : 01:43:59.187000000
NUMBER_OF_FRAMES                         : 149591
NUMBER_OF_BYTES                          : 5689768725
_STATISTICS_WRITING_APP                  : mkvmerge v7.2.0 ('On Every Street') 64bit built on Sep 13 2014 15:52:10
_STATISTICS_WRITING_DATE_UTC             : 2014-12-07 11:11:06
_STATISTICS_TAGS                         : BPS DURATION NUMBER_OF_FRAMES NUMBER_OF_BYTES

Audio #1
ID                                       : 2
Format                                   : AC-3
Format/Info                              : Audio Coding 3
Mode extension                           : CM (complete main)
Format settings, Endianness              : Big
Codec ID                                 : A_AC3
Duration                                 : 1h 43mn
Bit rate mode                            : Constant
Bit rate                                 : 192 Kbps
Channel(s)                               : 2 channels
Channel positions                        : Front: L R
Sampling rate                            : 48.0 KHz
Bit depth                                : 16 bits
Compression mode                         : Lossy
Stream size                              : 143 MiB (2%)
Title                                    : MVO [Tretyakoff production-Cine+] 2.0 192 kbps [Hurtom-karvai0]
Language                                 : Ukrainian
Default                                  : Yes
Forced                                   : No

Audio #2
ID                                       : 3
Format                                   :
Format/Info                              : Digital Theater Systems
Mode                                     : 16
Format settings, Endianness              : Big
Codec ID                                 : A_DTS
Duration                                 : 1h 43mn
Bit rate mode                            : Constant
Bit rate                                 : 1 509 Kbps
Channel(s)                               : 6 channels
Channel positions                        : Front: L C R, Side: L R, LFE
Sampling rate                            : 48.0 KHz
Bit depth                                : 24 bits
Compression mode                         : Lossy
Stream size                              : 1.10 GiB (16%)
Title                                    : Original 5.1 1509 kbps
Language                                 : English
Default                                  : No
Forced                                   : No

Audio #3
ID                                       : 4
Format                                   : AC-3
Format/Info                              : Audio Coding 3
Format profile                           : Dolby Digital
Mode extension                           : CM (complete main)
Format settings, Endianness              : Big
Codec ID                                 : A_AC3
Duration                                 : 1h 43mn
Bit rate mode                            : Constant
Bit rate                                 : 224 Kbps
Channel(s)                               : 2 channels
Channel positions                        : Front: L R
Sampling rate                            : 48.0 KHz
Bit depth                                : 16 bits
Compression mode                         : Lossy
Stream size                              : 167 MiB (2%)
Title                                    : Commentary 2.0 224 kbps
Language                                 : English
Default                                  : No
Forced                                   : No

Text
ID                                       : 5
Format                                   : UTF-8
Codec ID                                 : S_TEXT/UTF8
Codec ID/Info                            : UTF-8 Plain Text
Language                                 : English
Default                                  : No
Forced                                   : No





Джерела та подяки: &
ріп відео, оригінальні звук та субтитри - Dreamcatcher (HDClub); українська доріжка - karvai0; фільмографії акторів та інформація про озвучення - Віктор (всі - Гуртом).


ЗАЛИШАЙТЕСЬ ЯКОМОГА ДОВШЕ НА РОЗДАЧІ!

СКАЧАВ САМ - ДАЙ СКАЧАТИ ІНШИМ


 Трекер:    Зареєстрований   

Завантажити / скачати фільм українською



відео для новачків



 Зареєстрований:   2014-12-07 15:26
 Розмір:   6.7 GB 
 Оцінка фільму:   2.5/10 (Голосів: 13)
   
Інші релізи
zed 
Відео Гуртом - дизайнер
Відео Гуртом - дизайнер


З нами з: 10.12.13
Востаннє: 07.12.16
Повідомлень: 285

2014-12-07 17:15  
CINE+ HD не транслюють фільми зі звуком 5.1?
Скільки пафосу було навколо того, що якість звуку є першочерговою.

Anonymous 







2014-12-07 17:23  
Я не в курсі, щодо формату мовлення, доріжку взяв з релізу karvai0, думаю що він робив максимальну якість.
waldi-hurtom 
VIP


З нами з: 07.10.12
Востаннє: 05.12.16
Повідомлень: 611

2014-12-15 14:48  
Як на мене, один з найслабших фільмів Де Ніро. Десь на трієчку. Більше підійшла б назва "Кілька днів із життя гадючника".
Ваш часовий пояс: GMT + 2 Години

Нова тема   Відповісти