Завантажити та скачати торренти українською


Трансформери. Час вимирання / Transformers. Age of Extinction (2014) DVD9 Eng/Rus/Ukr | Sub Eng/Rus/Ukr

Нові коментарі

Нова тема   Відповісти
Останній раз роздавалося ihor25 (2016-08-31)
Автор Повідомлення
vitalicio 
VIP


З нами з: 28.06.09
Востаннє: 06.12.16
Повідомлень: 275

2014-12-07 13:09  
Трансформери. Час вимирання / Transformers. Age of Extinction (2014) DVD9 Eng/Rus/Ukr | Sub Eng/Rus/Ukr

Трансформери. Час вимирання / Transformers. Age of Extinction (2014) DVD9 Eng/Rus/Ukr | Sub Eng/Rus/Ukr


Жанр: екшн, пригодницький, фантастика
Країна: США, Китай



Кінокомпанія: Paramount Pictures, Hasbro, Di Bonaventura Pictures
Режисер: Майкл Бей / Michael Bay
Актори: Марк Волберґ / Mark Wahlberg, Нікола Пельтц / Nicola Peltz, Стенлі Туччі / Stanley Tucci, Софія Майлс / Sophia Myles, Ебіґейл Клейн / Abigail Klein, Келсі Ґраммер / Kelsey Grammer, Пітер Каллен / Peter Cullen та інші

Сюжет:
Автоботи і Десептикони покинули планету, залишивши людство збирати її по шматочках. Тим часом група могутніх бізнесменів і геніальних вчених намагається винести уроки з помилок минулого і поліпшити технології до такої міри, щоб вийти за межі контрольованого раніше. У цей час інша група - стародавніх потужних трансформерів - бере Землю під приціл.


Тривалість: 02:38:26
Якість: DVD-9
Відео:
кодек: MPEG-2 DVD
розмір кадру: 720 х 576
бітрейт: 4586 кб/с

Аудіо # 1:
мова: англійська
переклад: оригінал
кодек: 5.1
бітрейт: 448 кб/с

Аудіо # 2:
мова: російська
переклад: професійний дубльований
кодек: 5.1
бітрейт: 384 кб/с

Аудіо # 3:
мова: українська
переклад: професійний дубльований
кодек: 5.1
бітрейт: 384 кб/с

Джерело озвучення:


Субтитри:
мова: англійська
тип: пререндерні
формат: *.sub

Субтитри:
мова: російська
тип: пререндерні
формат: *.sub

Субтитри:
мова: українська
тип: пререндерні
формат: *.sub
Скріншоти






Mediainfo

General
Complete name : G:\uTorrent HD- video\Transformers. Age of Extinction.2014(Eng.Rus.Ukr.) DVD9\VIDEO_TS\VTS_04_2.VOB
Format : MPEG-PS
File size : 1 024 MiB
Duration : 24mn 14s
Overall bit rate mode : Variable
Overall bit rate : 5 905 Kbps

Video
ID : 224 (0xE0)
Format : MPEG Video
Format version : Version 2
Format profile : [email protected]
Format settings, BVOP : Yes
Format settings, Matrix : Custom
Format settings, GOP : Variable
Duration : 24mn 14s
Bit rate mode : Variable
Bit rate : 4 571 Kbps
Maximum bit rate : 9 800 Kbps
Width : 720 pixels
Height : 576 pixels
Display aspect ratio : 16:9
Frame rate : 25.000 fps
Standard : Component
Color space : YUV
Chroma subsampling : 4:2:0
Bit depth : 8 bits
Scan type : Progressive
Scan order : Top Field First
Compression mode : Lossy
Bits/(Pixel*Frame) : 0.441
Time code of first frame : 01:24:10:10
Time code source : Group of pictures header
Stream size : 793 MiB (77%)
Color primaries : BT.601 PAL
Transfer characteristics : BT.470 System B, BT.470 System G
Matrix coefficients : BT.601

Audio #1
ID : 189 (0xBD)-128 (0x80)
Format : AC-3
Format/Info : Audio Coding 3
Mode extension : CM (complete main)
Format settings, Endianness : Big
Muxing mode : DVD-Video
Duration : 24mn 14s
Bit rate mode : Constant
Bit rate : 448 Kbps
Channel(s) : 6 channels
Channel positions : Front: L C R, Side: L R, LFE
Sampling rate : 48.0 KHz
Bit depth : 16 bits
Compression mode : Lossy
Delay relative to video : -888ms
Stream size : 77.7 MiB (8%)

Audio #2
ID : 189 (0xBD)-129 (0x81)
Format : AC-3
Format/Info : Audio Coding 3
Mode extension : CM (complete main)
Format settings, Endianness : Big
Muxing mode : DVD-Video
Duration : 24mn 14s
Bit rate mode : Constant
Bit rate : 384 Kbps
Channel(s) : 6 channels
Channel positions : Front: L C R, Side: L R, LFE
Sampling rate : 48.0 KHz
Bit depth : 16 bits
Compression mode : Lossy
Delay relative to video : -856ms
Stream size : 66.6 MiB (7%)

Audio #3
ID : 189 (0xBD)-130 (0x82)
Format : AC-3
Format/Info : Audio Coding 3
Mode extension : CM (complete main)
Format settings, Endianness : Big
Muxing mode : DVD-Video
Duration : 24mn 14s
Bit rate mode : Constant
Bit rate : 384 Kbps
Channel(s) : 6 channels
Channel positions : Front: L C R, Side: L R, LFE
Sampling rate : 48.0 KHz
Bit depth : 16 bits
Compression mode : Lossy
Delay relative to video : -920ms
Stream size : 66.6 MiB (7%)

Text #1
ID : 189 (0xBD)-32 (0x20)
Format : RLE
Format/Info : Run-length encoding
Muxing mode : DVD-Video
Duration : 24mn 10s
Delay relative to video : 1s 200ms

Text #2
ID : 189 (0xBD)-33 (0x21)
Format : RLE
Format/Info : Run-length encoding
Muxing mode : DVD-Video
Duration : 24mn 10s
Delay relative to video : 1s 200ms

Text #3
ID : 189 (0xBD)-34 (0x22)
Format : RLE
Format/Info : Run-length encoding
Muxing mode : DVD-Video
Duration : 24mn 10s
Delay relative to video : 1s 80ms

Text #4
ID : 189 (0xBD)-35 (0x23)
Format : RLE
Format/Info : Run-length encoding
Muxing mode : DVD-Video
Duration : 24mn 10s
Delay relative to video : 1s 80ms

Text #5
ID : 189 (0xBD)-36 (0x24)
Format : RLE
Format/Info : Run-length encoding
Muxing mode : DVD-Video
Duration : 24mn 10s
Delay relative to video : 1s 200ms

Text #6
ID : 189 (0xBD)-37 (0x25)
Format : RLE
Format/Info : Run-length encoding
Muxing mode : DVD-Video
Duration : 24mn 10s
Delay relative to video : 1s 200ms

Menu
Джерело:
Особиста оцінка: 8 - мені сподобалося


 Трекер:    Зареєстрований   

Завантажити / скачати фільм українською



відео для новачків



 Зареєстрований:   2014-12-07 13:09
 Розмір:   6.58 GB 
 Оцінка фільму:   10/10 (Голосів: 3)
   
ihor25 
Новенький


З нами з: 02.02.11
Востаннє: 07.07.16
Повідомлень: 10

2014-12-08 01:12  
Завантажив, надіюсь, що мої сподівання підтвердяться...
Ваш часовий пояс: GMT + 2 Години

Нова тема   Відповісти