Завантажити та скачати торренти українською


Друга Ріка | Дискографія [10 CD, 1 DVD] (2000-2014) [FLAC] | Rock

Нові коментарі

Нова тема   Відповісти
Автор Повідомлення
vamp69 
Поважний учасник


З нами з: 06.07.09
Востаннє: 30.11.16
Повідомлень: 173

2014-12-07 11:00  
Друга Ріка | Дискографія [10 CD, 1 DVD] (2000-2014) [FLAC] | Rock



Стиль: Rock
Країна, місто: Україна, Житомир
Сайти: Офіційний сайт
Видавець: Lavina Music, Moon Records
Виконавці:
Валерій Харчишин - вокал, труба
Олександр Баранівський (Корадо) - гітара
Віктор Скуратівський - бас
Олексій Дорошенко - ударні
Сергій Гера - клавішні
Сергій Біліченко (Бєлік) - гітара

Дискографія:

    "2000 - Я Є (Nova Records)"

    01. Я є (3:41)
    02. Впусти мене (4:27)
    03. OOO Т.Б. (4:19)
    04. Вічна, жива (3:56)
    05. Там де ти (5:28)
    06. Знаєш (3:54)
    07. Чого же ти ждеш (3:09)
    08. Зазнайко (укр) (2:56)
    09. Інколи (4:13)
    10. Сни (4:44)
    11. Не моя земля (4:01)

    Тривалість: 00:43:42
    Мова: українська
    Видавець: Nova Records
    "EAC Log"
    Exact Audio Copy V1.0 beta 3 from 29. August 2011

    Отчёт EAC об извлечении, выполненном 24. декабря 2014, 23:11

    Друга Ріка / Я є

    Дисковод: HL-DT-STDVD-RAM GSA-H58N Adapter: 0 ID: 0

    Режим чтения : Достоверность
    Использование точного потока : Да
    Отключение кэша аудио : Да
    Использование указателей C2 : Нет

    Коррекция смещения при чтении : 102
    Способность читать области Lead-in и Lead-out : Нет
    Заполнение пропущенных сэмплов тишиной : Да
    Удаление блоков с тишиной в начале и конце : Нет
    При вычислениях CRC использовались нулевые сэмплы : Да
    Интерфейс : Встроенный Win32-интерфейс для Win NT/2000

    Выходной формат : Пользовательский кодировщик
    Выбранный битрейт : 1024 kBit/s
    Качество : Высокий
    Добавление ID3-тега : Нет
    Утилита сжатия : D:\soft_2\EAC\Exact Audio Copy\Flac\flac.exe
    Дополнительные параметры : -V -8 -T "Date=%year%" -T "Genre=%genre%" %source%

    TOC извлечённого CD

    Трек | Старт | Длительность | Начальный сектор | Конечный сектор
    ---------------------------------------------------------------------
    1 | 0:00.00 | 3:40.61 | 0 | 16560
    2 | 3:40.61 | 4:26.62 | 16561 | 36572
    3 | 8:07.48 | 4:18.63 | 36573 | 55985
    4 | 12:26.36 | 3:55.55 | 55986 | 73665
    5 | 16:22.16 | 5:27.39 | 73666 | 98229
    6 | 21:49.55 | 3:54.22 | 98230 | 115801
    7 | 25:44.02 | 3:08.49 | 115802 | 129950
    8 | 28:52.51 | 2:55.57 | 129951 | 143132
    9 | 31:48.33 | 4:12.52 | 143133 | 162084
    10 | 36:01.10 | 3:15.73 | 162085 | 176782
    11 | 39:17.08 | 4:32.73 | 176783 | 197255

    Характеристики диапазона извлечения и сообщения об ошибках

    Выбранный диапазон

    Имя файла E:\Музіка!\from EAC\2000 - Я є\Друга Ріка - Я є.wav

    Пиковый уровень 100.0 %
    Скорость извлечения 2.4 X
    Качество диапазона 99.9 %
    CRC теста F49956F2
    CRC копии F49956F2
    Копирование... OK

    Ошибок не произошло

    AccurateRip: сводка

    Трек 1 отсутствует в базе данных
    Трек 2 отсутствует в базе данных
    Трек 3 отсутствует в базе данных
    Трек 4 отсутствует в базе данных
    Трек 5 отсутствует в базе данных
    Трек 6 отсутствует в базе данных
    Трек 7 отсутствует в базе данных
    Трек 8 отсутствует в базе данных
    Трек 9 отсутствует в базе данных
    Трек 10 отсутствует в базе данных
    Трек 11 отсутствует в базе данных

    Ни одного трека нет в базе AccurateRip

    Конец отчёта

    ==== Контрольная сумма отчёта AAAEE8B4D2046DC4F98DFD4BC4F5F58E06312B968EBD88AEF13AA3E4F7C2BA50 ====
    "2000 - Я Є (2005 Moon records)"

    01. Я є (3:41)
    02. Впусти мене (4:27)
    03. OOO Т.Б. (4:19)
    04. Вічна, жива (3:56)
    05. Там де ти (5:28)
    06. Знаєш (3:54)
    07. Чого же ти ждеш (3:09)
    08. Зазнайко (укр) (2:56)
    09. Інколи (4:13)
    10. Сни (4:44)
    11. Не моя земля (4:01)
    12. Впусти мене (remix) (4:29)

    Тривалість: 00:49:15
    Мова: українська
    Видавець: Moon records

    +
    Druga rika - Там де ти

    Тривалість: 02:52:07
    Якість: CDvideo
    Відео:
    кодек: DivX 5
    розмір кадру: 352x240 (3:2)
    бітрейт: 764 кб/с
    Аудіо:
    кодек: MP3
    бітрейт: 192 кб/с
    "Скріншоти"

    "EAC Log"
    Exact Audio Copy V1.0 beta 3 from 29. August 2011

    EAC extraction logfile from 30. November 2014, 11:08

    Друга рiка / Я є

    Used drive : ATAPI iHAS124 B Adapter: 4 ID: 0

    Read mode : Secure
    Utilize accurate stream : Yes
    Defeat audio cache : Yes
    Make use of C2 pointers : No

    Read offset correction : 6
    Overread into Lead-In and Lead-Out : No
    Fill up missing offset samples with silence : Yes
    Delete leading and trailing silent blocks : No
    Null samples used in CRC calculations : Yes
    Used interface : Native Win32 interface for Win NT & 2000

    Used output format : Internal WAV Routines
    Sample format : 44.100 Hz; 16 Bit; Stereo

    TOC of the extracted CD

    Track | Start | Length | Start sector | End sector
    ---------------------------------------------------------
    1 | 0:00.00 | 3:40.58 | 0 | 16557
    2 | 3:40.58 | 4:26.65 | 16558 | 36572
    3 | 8:07.48 | 4:18.57 | 36573 | 55979
    4 | 12:26.30 | 3:55.56 | 55980 | 73660
    5 | 16:22.11 | 5:27.39 | 73661 | 98224
    6 | 21:49.50 | 3:54.23 | 98225 | 115797
    7 | 25:43.73 | 3:08.53 | 115798 | 129950
    8 | 28:52.51 | 2:55.50 | 129951 | 143125
    9 | 31:48.26 | 4:12.59 | 143126 | 162084
    10 | 36:01.10 | 4:43.63 | 162085 | 183372
    11 | 40:44.73 | 4:00.49 | 183373 | 201421
    12 | 44:45.47 | 4:29.13 | 201422 | 221609
    13 | 51:46.60 | 3:42.72 | 233010 | 249731

    Range status and errors

    Selected range

    Filename I:\Українська музика\Друга Рiка - Дискографія 2000-2014 - lossless\2000 - Я є (2005 Moon Records, Remastered)\Друга рiка - 2005 - Я є (Moon Records, Remastered).wav

    Peak level 100.0 %
    Extraction speed 5.9 X
    Range quality 99.9 %
    Test CRC F2F6CA14
    Copy CRC F2F6CA14
    Copy OK

    No errors occurred

    AccurateRip summary

    Track 1 not present in database
    Track 2 not present in database
    Track 3 not present in database
    Track 4 not present in database
    Track 5 not present in database
    Track 6 not present in database
    Track 7 not present in database
    Track 8 not present in database
    Track 9 not present in database
    Track 10 not present in database
    Track 11 not present in database
    Track 12 not present in database

    None of the tracks are present in the AccurateRip database

    End of status report

    ---- CUETools DB Plugin V2.1.3

    [CTDB TOCID: 6qozDL0fuDFDN.paZJP_wBaeb14-] disk not present in database, Submit result: 6qozDL0fuDFDN.paZJP_wBaeb14- has been uploaded

    ==== Log checksum E40CF2A6C5721DB051C9F1192AF6550204A5C2E6F7F71EE043DCB2F52755306B ====
    "2003 - Два"

    01. Математика (3:30)
    02. Алло (3:55)
    03. Вже не сам (3:26)
    04. Новий день (4:16)
    05. Я чую тебе тут (4:46)
    06. Шансон (3:41)
    07. Нічий (4:03)
    08. Це love-fun (4:01)
    09. Радіохіт (3:15)
    10. Оксана (3:03)
    11. Математика electro (3:03)

    Тривалість: 00:40:59
    Мова: українська
    Видавець: Lavina Music
    "EAC Log"
    Exact Audio Copy V1.0 beta 3 from 29. August 2011

    EAC extraction logfile from 30. November 2014, 12:08

    Друга Ріка / Два

    Used drive : ATAPI iHAS124 B Adapter: 4 ID: 0

    Read mode : Secure
    Utilize accurate stream : Yes
    Defeat audio cache : Yes
    Make use of C2 pointers : No

    Read offset correction : 6
    Overread into Lead-In and Lead-Out : No
    Fill up missing offset samples with silence : Yes
    Delete leading and trailing silent blocks : No
    Null samples used in CRC calculations : Yes
    Used interface : Native Win32 interface for Win NT & 2000

    Used output format : Internal WAV Routines
    Sample format : 44.100 Hz; 16 Bit; Stereo

    TOC of the extracted CD

    Track | Start | Length | Start sector | End sector
    ---------------------------------------------------------
    1 | 0:00.00 | 3:29.70 | 0 | 15744
    2 | 3:29.70 | 3:55.05 | 15745 | 33374
    3 | 7:25.00 | 3:26.20 | 33375 | 48844
    4 | 10:51.20 | 4:16.10 | 48845 | 68054
    5 | 15:07.30 | 4:46.18 | 68055 | 89522
    6 | 19:53.48 | 3:40.42 | 89523 | 106064
    7 | 23:34.15 | 4:03.18 | 106065 | 124307
    8 | 27:37.33 | 4:01.14 | 124308 | 142396
    9 | 31:38.47 | 3:14.57 | 142397 | 157003
    10 | 34:53.29 | 3:02.66 | 157004 | 170719
    11 | 37:56.20 | 3:03.12 | 170720 | 184456

    Range status and errors

    Selected range

    Filename I:\Українська музика\Друга Рiка - Дискографія 2000-2014 - lossless\2003 - Два\Друга Ріка - 2003 - Два.wav

    Peak level 100.0 %
    Extraction speed 1.4 X
    Range quality 99.9 %
    Test CRC A970DFCA
    Copy CRC A970DFCA
    Copy OK

    No errors occurred

    AccurateRip summary

    Track 1 accurately ripped (confidence 2) [0EFB5F55] (AR v2)
    Track 2 accurately ripped (confidence 2) [6DA8EED8] (AR v2)
    Track 3 accurately ripped (confidence 2) [228A7B8B] (AR v2)
    Track 4 accurately ripped (confidence 2) [26CC3758] (AR v2)
    Track 5 accurately ripped (confidence 2) [426DBB10] (AR v2)
    Track 6 accurately ripped (confidence 2) [AC57A8DE] (AR v2)
    Track 7 accurately ripped (confidence 2) [3E9EA61C] (AR v2)
    Track 8 accurately ripped (confidence 2) [0AF9BABA] (AR v2)
    Track 9 accurately ripped (confidence 2) [1550B37F] (AR v2)
    Track 10 accurately ripped (confidence 2) [DDE3E1E3] (AR v2)
    Track 11 accurately ripped (confidence 2) [2C0C017B] (AR v2)

    All tracks accurately ripped

    End of status report

    ---- CUETools DB Plugin V2.1.3

    [CTDB TOCID: _iTz_oDurtxbzDgMmAmEfFAe_BA-] found, Submit result: _iTz_oDurtxbzDgMmAmEfFAe_BA- has been confirmed
    [03bc3e28] (2/2) Accurately ripped

    ==== Log checksum E8FF9DA33EC498F712F86B3AE037D4A3593501A936DC30B238C7E31DA4730278 ====
    "2005 - Рекорди"

    01. Сам собі острів (4:12)
    02. Так мало тут тебе (3:30)
    03. Спи до завтра (3:26)
    04. П’ю з твоїх долонь (4:16)
    05. Секс на драйв (3:49)
    06. Три хвилини (3:42)
    07. Відчиняй (3:30)
    08. Твої слова (3:17)
    09. Не йди (4:13)
    10. За що (3:47)
    11. Падали (3:58)
    12. Шоу (4:07)

    Тривалість: 00:45:48
    Мова: українська
    Видавець: Lavina Music
    "EAC Log"
    Exact Audio Copy V1.0 beta 3 from 29. August 2011

    EAC extraction logfile from 1. December 2014, 0:26

    Друга Ріка / Рекорди

    Used drive : ATAPI iHAS124 B Adapter: 4 ID: 0

    Read mode : Secure
    Utilize accurate stream : Yes
    Defeat audio cache : Yes
    Make use of C2 pointers : No

    Read offset correction : 6
    Overread into Lead-In and Lead-Out : No
    Fill up missing offset samples with silence : Yes
    Delete leading and trailing silent blocks : No
    Null samples used in CRC calculations : Yes
    Used interface : Native Win32 interface for Win NT & 2000

    Used output format : Internal WAV Routines
    Sample format : 44.100 Hz; 16 Bit; Stereo

    TOC of the extracted CD

    Track | Start | Length | Start sector | End sector
    ---------------------------------------------------------
    1 | 0:00.00 | 4:12.10 | 0 | 18909
    2 | 4:12.10 | 3:30.09 | 18910 | 34668
    3 | 7:42.19 | 3:25.68 | 34669 | 50111
    4 | 11:08.12 | 4:16.25 | 50112 | 69336
    5 | 15:24.37 | 3:48.42 | 69337 | 86478
    6 | 19:13.04 | 3:42.16 | 86479 | 103144
    7 | 22:55.20 | 3:30.04 | 103145 | 118898
    8 | 26:25.24 | 3:16.63 | 118899 | 133661
    9 | 29:42.12 | 4:13.08 | 133662 | 152644
    10 | 33:55.20 | 3:47.36 | 152645 | 169705
    11 | 37:42.56 | 3:58.10 | 169706 | 187565
    12 | 41:40.66 | 4:07.25 | 187566 | 206115

    Range status and errors

    Selected range

    Filename I:\Українська музика\Друга Рiка - Дискографія 2000-2014 - lossless\2005 - Рекорди\Друга Ріка - 2005 - Рекорди.wav

    Peak level 100.0 %
    Extraction speed 5.5 X
    Range quality 100.0 %
    Test CRC E4CFBBBF
    Copy CRC E4CFBBBF
    Copy OK

    No errors occurred

    AccurateRip summary

    Track 1 accurately ripped (confidence 1) [93F16383] (AR v1)
    Track 2 accurately ripped (confidence 1) [03CF8868] (AR v2)
    Track 3 accurately ripped (confidence 1) [19013B98] (AR v2)
    Track 4 accurately ripped (confidence 1) [A8EE03C2] (AR v2)
    Track 5 accurately ripped (confidence 1) [3251C803] (AR v2)
    Track 6 accurately ripped (confidence 1) [D8D2B0BC] (AR v2)
    Track 7 accurately ripped (confidence 1) [772A6ECC] (AR v2)
    Track 8 accurately ripped (confidence 1) [DFA8CF8A] (AR v2)
    Track 9 accurately ripped (confidence 1) [2BFA2EEE] (AR v2)
    Track 10 accurately ripped (confidence 1) [001F3CBF] (AR v2)
    Track 11 accurately ripped (confidence 1) [845E4437] (AR v2)
    Track 12 accurately ripped (confidence 1) [A37DEAAC] (AR v2)

    All tracks accurately ripped

    End of status report

    ---- CUETools DB Plugin V2.1.3

    [CTDB TOCID: qRiPQ64zSoPtrSKcZs0CwKh7Bio-] found, Submit result: qRiPQ64zSoPtrSKcZs0CwKh7Bio- has been uploaded
    [5f369a3a] (1/1) Differs in 3411 samples @00:01:08-00:01:09,00:02:50-00:02:51,00:03:17-00:03:18,00:09:21-00:09:22,00:10:22-00:10:23,00:12:74-00:13:00,00:13:25,00:13:33-00:13:34,00:13:42,00:13:58-00:13:59,00:15:44,00:16:11-00:16:12,00:16:19-00:16:20,00:16:28-00:16:29,00:16:45,00:16:53-00:16:54,00:16:62,00:17:29-00:17:30,00:17:37-00:17:38,00:18:22,00:18:39,00:19:06-00:19:07,00:19:57-00:19:58,00:19:65-00:19:66,00:20:07-00:20:08,00:20:24-00:20:25,00:20:33,00:20:58-00:20:59,00:21:25-00:21:26,00:21:42-00:21:43,00:21:51-00:21:52,00:21:59-00:21:60,00:21:68-00:21:69,00:22:01-00:22:02,00:22:44-00:22:45,00:22:69-00:22:70,00:23:11-00:23:12,00:24:21-00:24:22,00:24:38-00:24:39,00:24:55-00:24:56,00:24:72-00:24:73,00:25:06,00:25:65-00:25:66,00:26:07-00:26:08,00:26:24-00:26:25,00:26:67,00:27:43-00:27:44,00:28:53-00:28:54,00:28:70-00:28:71,00:30:22-00:30:23
    You can use CUETools to repair this rip.

    ==== Log checksum 85D5A56551A2EA41A8DAC3968DB5922CBD8056D30C6EACD872B08605B1DA5927 ====
    "2006 - Деннiч"

    01. Деннiч (3:47)
    02. П'ю з твоїх долонь (4:15)
    03. Вже не сам (3:27)
    04. Спи до завтра (3:24)
    05. Алло (3:56)
    06. Так мало тут тебе (3:31)
    07. Математика (3:30)
    08. Впусти мене (4:28)
    09. Вiдчиняй (3:29)
    10. Оксана (3:03)
    11. Там де ти (5:28)
    12. Шансон (3:42)
    13. Три хвилини (3:44)

    Тривалість: 00:49:44
    Мова: українська
    Видавець: Lavina Music
    "EAC Log"
    Exact Audio Copy V1.0 beta 3 from 29. August 2011

    EAC extraction logfile from 1. December 2014, 18:17

    Друга Ріка / Dенніч

    Used drive : ATAPI iHAS124 B Adapter: 4 ID: 0

    Read mode : Secure
    Utilize accurate stream : Yes
    Defeat audio cache : Yes
    Make use of C2 pointers : No

    Read offset correction : 6
    Overread into Lead-In and Lead-Out : No
    Fill up missing offset samples with silence : Yes
    Delete leading and trailing silent blocks : No
    Null samples used in CRC calculations : Yes
    Used interface : Native Win32 interface for Win NT & 2000

    Used output format : Internal WAV Routines
    Sample format : 44.100 Hz; 16 Bit; Stereo

    TOC of the extracted CD

    Track | Start | Length | Start sector | End sector
    ---------------------------------------------------------
    1 | 0:00.00 | 3:46.55 | 0 | 17004
    2 | 3:46.55 | 4:15.25 | 17005 | 36154
    3 | 8:02.05 | 3:27.14 | 36155 | 51693
    4 | 11:29.19 | 3:24.37 | 51694 | 67030
    5 | 14:53.56 | 3:55.50 | 67031 | 84705
    6 | 18:49.31 | 3:30.43 | 84706 | 100498
    7 | 22:19.74 | 3:30.16 | 100499 | 116264
    8 | 25:50.15 | 4:28.00 | 116265 | 136364
    9 | 30:18.15 | 3:28.58 | 136365 | 152022
    10 | 33:46.73 | 3:03.09 | 152023 | 165756
    11 | 36:50.07 | 5:28.17 | 165757 | 190373
    12 | 42:18.24 | 3:41.48 | 190374 | 206996
    13 | 45:59.72 | 3:44.22 | 206997 | 223818

    Range status and errors

    Selected range

    Filename I:\Українська музика\Друга Рiка - Дискографія 2000-2014 - lossless\2006 - Dенніч\Друга Ріка - 2006 - Dенніч.wav

    Peak level 97.7 %
    Extraction speed 5.6 X
    Range quality 100.0 %
    Test CRC 0DD4674D
    Copy CRC 0DD4674D
    Copy OK

    No errors occurred

    AccurateRip summary

    Track 1 accurately ripped (confidence 1) [5570E33D] (AR v2)
    Track 2 accurately ripped (confidence 1) [20B97A25] (AR v2)
    Track 3 accurately ripped (confidence 1) [E3A3D8AF] (AR v2)
    Track 4 accurately ripped (confidence 1) [A1F3CAA9] (AR v2)
    Track 5 accurately ripped (confidence 1) [E0CBCAA0] (AR v2)
    Track 6 accurately ripped (confidence 1) [71B20268] (AR v2)
    Track 7 accurately ripped (confidence 1) [C58F1A77] (AR v2)
    Track 8 accurately ripped (confidence 1) [EA4672B5] (AR v2)
    Track 9 accurately ripped (confidence 1) [DFDBE0D9] (AR v2)
    Track 10 accurately ripped (confidence 1) [F6D0455C] (AR v2)
    Track 11 accurately ripped (confidence 1) [4446C864] (AR v2)
    Track 12 accurately ripped (confidence 1) [27810B75] (AR v2)
    Track 13 accurately ripped (confidence 1) [A9F17299] (AR v2)

    All tracks accurately ripped

    End of status report

    ---- CUETools DB Plugin V2.1.3

    [CTDB TOCID: ssMfJpZw2yKNtaIkGph8twDqd4s-] disk not present in database, Submit result: ssMfJpZw2yKNtaIkGph8twDqd4s- has been uploaded

    ==== Log checksum FDAD4080F79189D709EF48646CEF9862A72DDB8480447165AC7867D72C1C8B65 ====
    "2008 - Догоним! Доженемо! (Single)"

    01. Догоним! Доженемо! (3:33)

    Тривалість: 00:03:33
    Мова: українська-російська
    Видавець: Lavina Music
    "EAC Log"
    Exact Audio Copy V0.99 prebeta 5 from 4. May 2009

    EAC extraction logfile from 6. September 2010, 16:00

    Tokio + Друга Ріка / Догоним! Доженемо! (Promo CDS)

    Used drive : Optiarc DVD RW AD-7170S Adapter: 2 ID: 2

    Read mode : Secure
    Utilize accurate stream : Yes
    Defeat audio cache : Yes
    Make use of C2 pointers : No

    Read offset correction : 48
    Overread into Lead-In and Lead-Out : No
    Fill up missing offset samples with silence : Yes
    Delete leading and trailing silent blocks : No
    Null samples used in CRC calculations : Yes
    Used interface : Installed external ASPI interface

    Used output format : Internal WAV Routines
    Sample format : 44.100 Hz; 16 Bit; Stereo

    TOC of the extracted CD

    Track | Start | Length | Start sector | End sector
    ---------------------------------------------------------
    1 | 0:00.00 | 3:33.13 | 0 | 15987
    2 | 6:05.13 | 5:34.01 | 27388 | 52438

    Range status and errors

    Selected range

    Filename K:\torrents UPLOAD\UKR\Tokio + Друга Ріка - 2008 - Догоним! Доженемо! (Promo CDS)\Tokio + Друга Ріка - 2008 - Догоним! Доженемо! (Promo CDS).wav

    Peak level 96.8 %
    Range quality 99.9 %
    Test CRC D1377AF5
    Copy CRC D1377AF5
    Copy OK

    No errors occurred

    AccurateRip summary

    Track 1 not present in database

    None of the tracks are present in the AccurateRip database

    End of status report
    "2008 - Мода"

    01. Номер один (3:47)
    02. Кінець світу (4:00)
    03. Пропоную мир (3:35)
    04. Дотик (4:19)
    05. Космоzoo (4:19)
    06. О'будь... (5:03)
    07. Мікрофони (3:37)
    08. Дискомода (3:36)
    09. Фурія (2:44)
    10. Не треба (4:32)
    11. Я полечу... (4:15)

    Тривалість: 00:43:47
    Мова: українська
    Видавець: Moon Records
    "EAC Log"
    Exact Audio Copy V1.0 beta 3 from 29. August 2011

    EAC extraction logfile from 1. December 2014, 19:25

    Друга Ріка / Мода

    Used drive : ATAPI iHAS124 B Adapter: 4 ID: 0

    Read mode : Secure
    Utilize accurate stream : Yes
    Defeat audio cache : Yes
    Make use of C2 pointers : No

    Read offset correction : 6
    Overread into Lead-In and Lead-Out : No
    Fill up missing offset samples with silence : Yes
    Delete leading and trailing silent blocks : No
    Null samples used in CRC calculations : Yes
    Used interface : Native Win32 interface for Win NT & 2000

    Used output format : Internal WAV Routines
    Sample format : 44.100 Hz; 16 Bit; Stereo

    TOC of the extracted CD

    Track | Start | Length | Start sector | End sector
    ---------------------------------------------------------
    1 | 0:00.00 | 3:46.38 | 0 | 16987
    2 | 3:46.38 | 3:59.71 | 16988 | 34983
    3 | 7:46.34 | 3:34.55 | 34984 | 51088
    4 | 11:21.14 | 4:19.01 | 51089 | 70514
    5 | 15:40.15 | 4:19.35 | 70515 | 89974
    6 | 19:59.50 | 5:03.37 | 89975 | 112736
    7 | 25:03.12 | 3:36.47 | 112737 | 128983
    8 | 28:39.59 | 3:35.64 | 128984 | 145172
    9 | 32:15.48 | 2:44.30 | 145173 | 157502
    10 | 35:00.03 | 4:31.49 | 157503 | 177876
    11 | 39:31.52 | 4:14.66 | 177877 | 196992

    Range status and errors

    Selected range

    Filename I:\Українська музика\Друга Рiка - Дискографія 2000-2014 - lossless\2008 - Мода\Друга Ріка - 2008 - Мода.wav

    Peak level 100.0 %
    Extraction speed 1.8 X
    Range quality 100.0 %
    Test CRC 4DCC30A8
    Copy CRC 4DCC30A8
    Copy OK

    No errors occurred

    AccurateRip summary

    Track 1 accurately ripped (confidence 1) [72539622] (AR v2)
    Track 2 accurately ripped (confidence 1) [32E8ACF3] (AR v2)
    Track 3 accurately ripped (confidence 1) [0E1C23F2] (AR v2)
    Track 4 accurately ripped (confidence 1) [0CB79ECE] (AR v2)
    Track 5 accurately ripped (confidence 1) [D5B4098A] (AR v2)
    Track 6 accurately ripped (confidence 1) [B902921E] (AR v2)
    Track 7 accurately ripped (confidence 1) [E9ADED2D] (AR v2)
    Track 8 accurately ripped (confidence 1) [4EE385E7] (AR v2)
    Track 9 accurately ripped (confidence 1) [14BF6FB5] (AR v2)
    Track 10 accurately ripped (confidence 1) [E1577CD9] (AR v2)
    Track 11 accurately ripped (confidence 1) [82DEB68E] (AR v2)

    All tracks accurately ripped

    End of status report

    ---- CUETools DB Plugin V2.1.3

    [CTDB TOCID: 8.teZV_r1Ld5cRT_dXoCaMfv4DY-] found, Submit result: 8.teZV_r1Ld5cRT_dXoCaMfv4DY- has been confirmed
    [2436ba5d] (1/1) Accurately ripped

    ==== Log checksum 60168F88333AA1D383859BF57FC77CA87E9170D81F78330745DFD885FF2C0235 ====
    "2009 - Best 1999-2009"

    01. Догоним! Доженемо! (3:34)
    02. Деннiч (3:47)
    03. Так мало тут тебе (3:30)
    04. Кiнець світу (3:59)
    05. П`ю з твоїх долонь (4:15)
    06. Пропоную мир (3:31)
    07. Дотик (3:42)
    08. Математика (3:30)
    09. 000 Т.Б. (4:18)
    10. Впусти мене (4:27)
    11. Алло (3:55)
    12. Шансон (3:39)
    13. Спи до завтра (3:23)
    14. Вже не сам (3:26)
    15. Вiдчиняй (3:28)
    16. Фурiя (2:44)
    17. Оксана (3:03)
    18. Я полечу (4:15)
    19. Там, де ти (5:27)
    20. Космоzoo (4:19)
    21. Три хвилини (3:40)

    Тривалість: 01:19:51
    Мова: українська-російська (1)
    Видавець: Moon Records
    "EAC Log"
    Exact Audio Copy V1.0 beta 3 from 29. August 2011

    EAC extraction logfile from 1. December 2014, 23:13

    Друга Ріка / Best 1999-2009

    Used drive : ATAPI iHAS124 B Adapter: 4 ID: 0

    Read mode : Secure
    Utilize accurate stream : Yes
    Defeat audio cache : Yes
    Make use of C2 pointers : No

    Read offset correction : 6
    Overread into Lead-In and Lead-Out : No
    Fill up missing offset samples with silence : Yes
    Delete leading and trailing silent blocks : No
    Null samples used in CRC calculations : Yes
    Used interface : Native Win32 interface for Win NT & 2000

    Used output format : Internal WAV Routines
    Sample format : 44.100 Hz; 16 Bit; Stereo

    TOC of the extracted CD

    Track | Start | Length | Start sector | End sector
    ---------------------------------------------------------
    1 | 0:00.00 | 3:34.09 | 0 | 16058
    2 | 3:34.09 | 3:46.69 | 16059 | 33077
    3 | 7:21.03 | 3:30.01 | 33078 | 48828
    4 | 10:51.04 | 3:59.03 | 48829 | 66756
    5 | 14:50.07 | 4:15.05 | 66757 | 85886
    6 | 19:05.12 | 3:31.28 | 85887 | 101739
    7 | 22:36.40 | 3:42.11 | 101740 | 118400
    8 | 26:18.51 | 3:29.54 | 118401 | 134129
    9 | 29:48.30 | 4:18.35 | 134130 | 153514
    10 | 34:06.65 | 4:26.52 | 153515 | 173516
    11 | 38:33.42 | 3:54.52 | 173517 | 191118
    12 | 42:28.19 | 3:39.05 | 191119 | 207548
    13 | 46:07.24 | 3:23.22 | 207549 | 222795
    14 | 49:30.46 | 3:26.01 | 222796 | 238246
    15 | 52:56.47 | 3:28.08 | 238247 | 253854
    16 | 56:24.55 | 2:43.57 | 253855 | 266136
    17 | 59:08.37 | 3:02.44 | 266137 | 279830
    18 | 62:11.06 | 4:15.00 | 279831 | 298955
    19 | 66:26.06 | 5:27.12 | 298956 | 323492
    20 | 71:53.18 | 4:18.63 | 323493 | 342905
    21 | 76:12.06 | 3:39.66 | 342906 | 359396

    Range status and errors

    Selected range

    Filename I:\Українська музика\Друга Рiка - Дискографія 2000-2014 - lossless\2009 - Best 1999-2009\Друга Ріка - 2009 - Best 1999-2009.wav

    Peak level 100.0 %
    Extraction speed 2.0 X
    Range quality 100.0 %
    Test CRC CB8CC18F
    Copy CRC CB8CC18F
    Copy OK

    No errors occurred

    AccurateRip summary

    Track 1 not present in database
    Track 2 not present in database
    Track 3 not present in database
    Track 4 not present in database
    Track 5 not present in database
    Track 6 not present in database
    Track 7 not present in database
    Track 8 not present in database
    Track 9 not present in database
    Track 10 not present in database
    Track 11 not present in database
    Track 12 not present in database
    Track 13 not present in database
    Track 14 not present in database
    Track 15 not present in database
    Track 16 not present in database
    Track 17 not present in database
    Track 18 not present in database
    Track 19 not present in database
    Track 20 not present in database
    Track 21 not present in database

    None of the tracks are present in the AccurateRip database

    End of status report

    ---- CUETools DB Plugin V2.1.3

    [CTDB TOCID: TwvxQf46gwgJobS0S5CD3A7pY4M-] disk not present in database, Submit result: TwvxQf46gwgJobS0S5CD3A7pY4M- has been uploaded

    ==== Log checksum B13E6CDCE0EF75EA16A5D829F51984D385B6C24246BABBF861C783DD351156F4 ====
    DVD:
    Тривалість: 01:14:15
    Якість: DVD-5
    Відео:
    кодек: MPEG-2
    розмір кадру: PAL 4:3 (720x576)
    бітрейт: ~6698 кб/с

    Аудіо:
    кодек: WAV (PCM)
    бітрейт: 1536 кб/с
    Скріншоти

    "2012 - Metanoia. Part 1"

    01. Intro (2:03)
    02. Світ на різних берегах (4:05)
    03. Пробач (Все мине) (3:33)
    04. Hello My Friend (4:03)
    05. Тільки любов (3:28)
    06. Ти зі мною (Я здаюсь!) (3:53)
    07. Незнайомка (3:55)
    08. Temademo (4:02)
    09. Hello My Friend (eng) (4:02)
    10. Метро (4:02)
    11. Світ на різних берегах - Hersey Yolunda (Друга Ріка & Mor Ve Otesi) (3:48)

    Тривалість: 00:40:54
    Мова: українська-російська (4), англійська (9)
    Видавець: Lavina Music
    "EAC Log"
    Exact Audio Copy V1.0 beta 3 from 29. August 2011

    EAC extraction logfile from 1. December 2014, 23:34

    2RIKA / Metanoia (Part I)

    Used drive : ATAPI iHAS124 B Adapter: 4 ID: 0

    Read mode : Secure
    Utilize accurate stream : Yes
    Defeat audio cache : Yes
    Make use of C2 pointers : No

    Read offset correction : 6
    Overread into Lead-In and Lead-Out : No
    Fill up missing offset samples with silence : Yes
    Delete leading and trailing silent blocks : No
    Null samples used in CRC calculations : Yes
    Used interface : Native Win32 interface for Win NT & 2000

    Used output format : Internal WAV Routines
    Sample format : 44.100 Hz; 16 Bit; Stereo

    TOC of the extracted CD

    Track | Start | Length | Start sector | End sector
    ---------------------------------------------------------
    1 | 0:00.00 | 2:03.31 | 0 | 9255
    2 | 2:03.31 | 4:04.41 | 9256 | 27596
    3 | 6:07.72 | 3:33.11 | 27597 | 43582
    4 | 9:41.08 | 4:02.71 | 43583 | 61803
    5 | 13:44.04 | 3:28.07 | 61804 | 77410
    6 | 17:12.11 | 3:52.62 | 77411 | 94872
    7 | 21:04.73 | 3:55.20 | 94873 | 112517
    8 | 25:00.18 | 4:02.00 | 112518 | 130667
    9 | 29:02.18 | 4:02.07 | 130668 | 148824
    10 | 33:04.25 | 4:02.00 | 148825 | 166974
    11 | 37:06.25 | 3:48.07 | 166975 | 184081

    Range status and errors

    Selected range

    Filename I:\Українська музика\Друга Рiка - Дискографія 2000-2014 - lossless\2012 - Metanoia (Part I)\2RIKA - 2012 - Metanoia (Part I).wav

    Peak level 98.4 %
    Extraction speed 5.3 X
    Range quality 100.0 %
    Test CRC 01724DFC
    Copy CRC 01724DFC
    Copy OK

    No errors occurred

    AccurateRip summary

    Track 1 cannot be verified as accurate (confidence 1) [C855A363], AccurateRip returned [F3853276] (AR v2)
    Track 2 cannot be verified as accurate (confidence 1) [3F258A11], AccurateRip returned [0B8F9B9D] (AR v2)
    Track 3 cannot be verified as accurate (confidence 1) [E5ACF533], AccurateRip returned [8D2AE4F7] (AR v2)
    Track 4 cannot be verified as accurate (confidence 1) [E5CF9374], AccurateRip returned [AD6F5E0D] (AR v2)
    Track 5 cannot be verified as accurate (confidence 1) [AEBE5399], AccurateRip returned [BF3AA654] (AR v2)
    Track 6 cannot be verified as accurate (confidence 1) [D97E2934], AccurateRip returned [F31F6F61] (AR v2)
    Track 7 cannot be verified as accurate (confidence 1) [63A49752], AccurateRip returned [2EFEE871] (AR v2)
    Track 8 cannot be verified as accurate (confidence 1) [D4B016FA], AccurateRip returned [00EF68A5] (AR v2)
    Track 9 cannot be verified as accurate (confidence 1) [D5417EBC], AccurateRip returned [A9B1A4CB] (AR v2)
    Track 10 cannot be verified as accurate (confidence 1) [52D8B033], AccurateRip returned [F0A08A88] (AR v2)
    Track 11 cannot be verified as accurate (confidence 1) [E6C68B3D], AccurateRip returned [82A17A33] (AR v2)

    No tracks could be verified as accurate
    You may have a different pressing from the one(s) in the database

    End of status report

    ---- CUETools DB Plugin V2.1.3

    [CTDB TOCID: 3ZoXBzRJV8hCYL46wqL4KkVb_Nk-] disk not present in database, Submit result: 3ZoXBzRJV8hCYL46wqL4KkVb_Nk- has been uploaded

    ==== Log checksum 8569CD322535BE5DA1FAD5CB06949F3359127FD489BFC0C8139C56889D151A2F ====
    "2014 - SUPERNATION"

    1. Intro 0:32
    2. Париж(дай мені вогню) 4:00
    3. Я чую 4:07
    4. Хто, якщо не ти? 4:19
    5. Назавжди (НаНаМаНа) 3:02
    6. Stop 4:48
    7. Supernation 3:55
    8. Де ти є? 3:33
    9. Хто я тобі? 3:13
    10. Засинай 3:33

    Реліз: 06.12.2014
    Тривалість: 00:40:04
    Мова: українська
    Видавець: Lavina Music
    "EAC Log"
    Exact Audio Copy V1.0 beta 3 from 29. August 2011

    EAC extraction logfile from 7. December 2014, 9:13

    Друга Ріка / SUPERNATION

    Used drive : ATAPI iHAS124 B Adapter: 4 ID: 0

    Read mode : Secure
    Utilize accurate stream : Yes
    Defeat audio cache : Yes
    Make use of C2 pointers : No

    Read offset correction : 6
    Overread into Lead-In and Lead-Out : No
    Fill up missing offset samples with silence : Yes
    Delete leading and trailing silent blocks : No
    Null samples used in CRC calculations : Yes
    Used interface : Native Win32 interface for Win NT & 2000

    Used output format : Internal WAV Routines
    Sample format : 44.100 Hz; 16 Bit; Stereo

    TOC of the extracted CD

    Track | Start | Length | Start sector | End sector
    ---------------------------------------------------------
    1 | 0:00.00 | 0:32.17 | 0 | 2416
    2 | 0:32.17 | 4:00.62 | 2417 | 20478
    3 | 4:33.04 | 4:07.44 | 20479 | 39047
    4 | 8:40.48 | 4:19.52 | 39048 | 58524
    5 | 13:00.25 | 3:02.31 | 58525 | 72205
    6 | 16:02.56 | 4:48.35 | 72206 | 93840
    7 | 20:51.16 | 3:55.71 | 93841 | 111536
    8 | 24:47.12 | 3:33.06 | 111537 | 127517
    9 | 28:20.18 | 3:13.09 | 127518 | 142001
    10 | 31:33.27 | 3:33.16 | 142002 | 157992

    Range status and errors

    Selected range

    Filename I:\Українська музика\Друга Ріка - Дискографія 2000-2014 - lossless\2014 - SUPERNATION\Друга Ріка - 2014 - SUPERNATION.wav

    Peak level 100.0 %
    Extraction speed 1.7 X
    Range quality 100.0 %
    Test CRC D9E1FC7A
    Copy CRC D9E1FC7A
    Copy OK

    No errors occurred

    AccurateRip summary

    Track 1 not present in database
    Track 2 not present in database
    Track 3 not present in database
    Track 4 not present in database
    Track 5 not present in database
    Track 6 not present in database
    Track 7 not present in database
    Track 8 not present in database
    Track 9 not present in database
    Track 10 not present in database

    None of the tracks are present in the AccurateRip database

    End of status report

    ---- CUETools DB Plugin V2.1.3

    [CTDB TOCID: AH9LKdqvYFH5sNAH4ePxpYmQ41Q-] disk not present in database, Submit result: AH9LKdqvYFH5sNAH4ePxpYmQ41Q- has been uploaded

    ==== Log checksum 00C4D0DD3344D9B4AD5216D4AC8B813B3517E83D939B5CA6B3DA01463D09E3B5 ====


Тривалість: 06:28:55
Мова: українська, російська, англійська
Аудіо-кодек: FLAC
Бітрейт: 966 кб/с
Джерело: мій CD (крім "2008 - Догоним! Доженемо!" від ultramode, та "2000 - Я є" (Nova Records) від gosha.samovar

"Це якраз той момент, коли все виходить так, як ти плануєш і це робить тебе щасливим.
Це - найкраще, що ми сьогдні зробили, бо ми це дійсно пережили. Дякуючи вам! Ви і є Supernation" — Валерій Харчишин


Якщо Ви справді бажаєте підтримати українське - після прослуховування, якщо музика вам сподобалась, придбайте ліцензійний диск. Підтримаймо вітчизняних виконавців!


Золотий реліз (завантажене не впливає на рейтинг)
 Трекер:    Зареєстрований   

Завантажити / скачати українську музику



відео для новачків



 Зареєстрований:   2014-12-25 20:23
 Розмір:   7.89 GB 
 Оцінка музики:   9.9/10 (Голосів: 21)
   
ssTAss 
Модератор музики


З нами з: 05.07.08
Востаннє: 03.12.16
Повідомлень: 10930

2014-12-07 17:40  
хм, дискографія ДР є на Толоці
http://toloka.to/t6773
якщо автор попередньої не буде проти викладення (чи не захоче додавати в свою нові альбоми), тоді і зробите нову
таке у нас правило
але, думаю, тут може бути і виняток, тому що у Вас
1 - ріпи з власних CD
2 - повні альбоми (з відео)
та й пан plyrvt вже давно не оновлював, хоч на Толоці після його дискографії вже є 2 нових альбоми

вердикт - Ваша роздача залишається
якщо хтось не згідний чи виникають якісь питання, то прошу писати ПП чи тут

Додано через 7 хвилин 40 секунд:

одне тільки питання
vamp69 написано:
"2009 - Best 1999-2009"

тут ще був DVD
чого його не викласти?

boberyn 
Свій


З нами з: 17.03.11
Востаннє: 04.02.15
Повідомлень: 81

2014-12-07 19:33  
будьласка, SUPERNATION" викладіть в мп3. тим паче наче в такому форматі теж існує роздача гурту?
vamp69 
Поважний учасник


З нами з: 06.07.09
Востаннє: 30.11.16
Повідомлень: 173

2014-12-08 11:36  
ssTAss написано:

вердикт - Ваша роздача залишається
якщо в хтось не згідний чи виникають якісь питання, то прошу писати ПП чи тут


дякую

ssTAss написано:

тут ще був DVD
чого його не викласти?


Ну можу і сюди додати. Я подумав може окремо залити, ось чого і не додав.

boberyn написано:
будьласка, SUPERNATION" викладіть в мп3. тим паче наче в такому форматі теж існує роздача гурту?


закину

ssTAss 
Модератор музики


З нами з: 05.07.08
Востаннє: 03.12.16
Повідомлень: 10930

2014-12-08 22:07  
vamp69 написано:
Ну можу і сюди додати. Я подумав може окремо залити, ось чого і не додав.

можна і окремо, а тут посилання
хоча я прихильник повної дискографії (разом з двд), бо навіть продавалось не окремо, а разом

vamp69 
Поважний учасник


З нами з: 06.07.09
Востаннє: 30.11.16
Повідомлень: 173

2014-12-09 11:18  
ssTAss Додав
boberyn 
Свій


З нами з: 17.03.11
Востаннє: 04.02.15
Повідомлень: 81

2014-12-09 12:03  
вдячний!
gosha.samovar 
VIP


З нами з: 08.09.10
Востаннє: 03.12.16
Повідомлень: 400

2014-12-24 08:50  
У мене є перше видання "Я є" NRCD-21-2. Автор, якщо хочеш, я зріпаю й відсканю, а ти додаси.
vamp69 
Поважний учасник


З нами з: 06.07.09
Востаннє: 30.11.16
Повідомлень: 173

2014-12-24 19:25  
gosha.samovar Давай ріпай. Буду дуже вдячний!!!
А то я не дочекаюсь напевно коли мій диск такий приїде до мене))

vamp69 
Поважний учасник


З нами з: 06.07.09
Востаннє: 30.11.16
Повідомлень: 173

2014-12-25 20:25  
Торрент оновлено. Додав перший альбом від Nova Records. Подяка gosha.samovar 
Oleksa9 
Поважний учасник


З нами з: 17.05.12
Востаннє: 03.12.16
Повідомлень: 225

2014-12-27 14:57  
gosha.samovar написано:
У мене є перше видання "Я є" NRCD-21-2. АвторЕ, якщо хочеш, я зріпаю й відсканю, а ти додаси.

Форкуш 
VIP


З нами з: 03.02.10
Востаннє: 03.12.16
Повідомлень: 1533

2015-02-17 11:53  
Нарід, а може хтось гарно конвертнути це все у 320?????
Будь ласочкаааа!!!

Ваш часовий пояс: GMT + 2 Години

Нова тема   Відповісти