Завантажити та скачати торренти українською


Геркулес / Hercules (2014) 1080p 3D [Half OverUnder] Ukr/Eng | Sub Ukr/Eng

Нові коментарі

Нова тема   Відповісти
Останній раз роздавалося Kaynan (2016-12-10)
Автор Повідомлення
3d_reliz 
Частий відвідувач


З нами з: 28.09.14
Востаннє: 15.03.16
Повідомлень: 35

2014-12-06 15:30  
Геркулес / Hercules (2014) 1080p 3D [Half OverUnder] Ukr/Eng | Sub Ukr/Eng

Геркулес / Hercules (2014) 1080p 3D [Half OverUnder] Ukr/Eng | Sub Ukr/Eng


«Безліч ворогів. Дванадцять подвигів. Один герой»


Жанр: екшн, пригодницький
Країна: США



Кінокомпанія: Paramount Pictures, Metro-Goldwyn-Mayer (MGM), Flynn Picture
Режисер: Бретт Ретнер
Актори: Двейн Джонсон, Аксель Генні, Ірина Шейк, Іен Макшейн, Джон Герт, Руфус Сьюелл, Інґрід Больсе Бердаль, Ріс Річі, Джозеф Файнс, Тобіас Зантельмен, Пітер Муллан

Сюжет:
Більше тисячі років тому змучена душа поневірялася по Землі, напівбог, напівлюдина - Геркулес - могутній син царя богів Зевса, зробивши всі 12 подвигів, втратив сім'ю і тепер знаходить розраду тільки в кривавих битвах. За ці роки він збирає навколо себе шістьох таких же загублених воїнів, єдиним сенсом життя для яких стали битви і присутність смертельної небезпеки. Ці чоловіки і жінка ніколи не задають питання, де, чому або з ким вони йдуть боротися; тільки, скільки їм заплатять. Знаючи це, фракійський цар Котіс наймає цих воїнів, щоб вони навчили його солдатів і зробили з них найсильнішу і велику армію всіх часів.


Тривалість: 01:38:04
Якість:
Відео:
кодек:
розмір кадру: 1920x800
бітрейт: 10,7 Мб/с

Аудіо # 1:
мова: українська
переклад: професійний дубльований
кодек: 5.1
бітрейт: 448 кб/с
Інформація про дубляж
Переклад: Романа Дяченка
Режисер дубляжу: Костянтин Лінартович
Менеджер проекту: Ірина Туловська
Звукорежисер: Анна Малієнко
Ролі дублювали: Михайло Жонін, Борис Георгієвський, Андрій Гайдай, Юлія Перенчук, Михайло Кришталь, Юрій Висоцький, Катерина Сергєєва, Катерина Брайковська, Олександр Шевчук, Роман Чупіс, Андрій Твердак, Валерій Легін, Володимир Нечепоренко, Дмитро Вікулов та інші.
Фільм дубльовано студією Postmodern.
Аудіо # 2:
мова: англійська
переклад: оригінал
кодек: 5.1
бітрейт: 1510 кб/с

Субтитри:
мова: українська
тип: програмні (м'які)
формат: *.srt

Субтитри:
мова: англійська
тип: програмні (м'які)
формат: *.srt
MediaInfo
General
Unique ID : 254510588501529760164786432889602304036 (0xBF78F4D3BD06F2EDA1C8FB22C07DE824)
Complete name : E:\3D_film\Hercules (2014) 1080р 3D [ukr] [Hurtom].mkv
Format : Matroska
Format version : Version 1
File size : 8.88 GiB
Duration : 1h 38mn
Overall bit rate : 13.0 Mbps
Encoded date : UTC 2014-12-06 13:01:29
Writing application : mkvmerge v2.4.1 ('Use Me') built on Dec 5 2008 18:30:05
Writing library : libebml v0.7.7 + libmatroska v0.8.1
DURATION : 01:30:02.021000000
NUMBER_OF_FRAMES : 927
NUMBER_OF_BYTES : 28833
_STATISTICS_WRITING_APP : mkvmerge v7.2.0 ('On Every Street') 64bit built on Sep 13 2014 15:52:10
_STATISTICS_WRITING_DATE_UTC : 2014-12-04 20:36:23
_STATISTICS_TAGS : BPS DURATION NUMBER_OF_FRAMES NUMBER_OF_BYTES
Attachment : Yes
Video #1
ID : 1
Format : AVC
Format/Info : Advanced Video Codec
Format profile : [email protected]
Format settings, CABAC : Yes
Format settings, ReFrames : 4 frames
Codec ID : V_MPEG4/ISO/AVC
Duration : 1h 38mn
Bit rate : 10.7 Mbps
Width : 1 920 pixels
Height : 1 080 pixels
Display aspect ratio : 16:9
Frame rate mode : Constant
Frame rate : 23.976 fps
Color space : YUV
Chroma subsampling : 4:2:0
Bit depth : 8 bits
Scan type : Progressive
Bits/(Pixel*Frame) : 0.216
Stream size : 7.36 GiB (83%)
Writing library : core 138 r2358 9e941d1
Encoding settings : cabac=1 / ref=4 / deblock=1:-3:-3 / analyse=0x3:0x113 / me=umh / subme=10 / psy=1 / psy_rd=1.00:0.15 / mixed_ref=1 / me_range=32 / chroma_me=1 / trellis=2 / 8x8dct=1 / cqm=0 / deadzone=21,11 / fast_pskip=1 / chroma_qp_offset=-3 / threads=12 / lookahead_threads=3 / sliced_threads=0 / nr=0 / decimate=1 / interlaced=0 / bluray_compat=0 / constrained_intra=0 / bframes=11 / b_pyramid=2 / b_adapt=2 / b_bias=0 / direct=3 / weightb=1 / open_gop=0 / weightp=2 / keyint=250 / keyint_min=23 / scenecut=40 / intra_refresh=0 / rc_lookahead=60 / rc=crf / mbtree=1 / crf=17.0 / qcomp=0.70 / qpmin=0 / qpmax=69 / qpstep=4 / vbv_maxrate=40000 / vbv_bufsize=30000 / crf_max=0.0 / nal_hrd=none / frame-packing=4 / ip_ratio=1.40 / aq=1:0.70
Language : Ukrainian
Default : Yes
Forced : No
DURATION : 01:38:04.754000000
NUMBER_OF_FRAMES : 141093
NUMBER_OF_BYTES : 8088258959
_STATISTICS_WRITING_APP : mkvmerge v7.2.0 ('On Every Street') 64bit built on Sep 13 2014 15:52:10
_STATISTICS_WRITING_DATE_UTC : 2014-12-04 20:36:23
_STATISTICS_TAGS : BPS DURATION NUMBER_OF_FRAMES NUMBER_OF_BYTES
Audio #2
ID : 2
Format : AC-3
Format/Info : Audio Coding 3
Mode extension : CM (complete main)
Format settings, Endianness : Big
Codec ID : A_AC3
Duration : 1h 38mn
Bit rate mode : Constant
Bit rate : 448 Kbps
Channel(s) : 6 channels
Channel positions : Front: L C R, Side: L R, LFE
Sampling rate : 48.0 KHz
Bit depth : 16 bits
Compression mode : Lossy
Stream size : 314 MiB (3%)
Default : Yes
Forced : No
Audio #3
ID : 3
Format :
Format/Info : Digital Theater Systems
Mode : 16
Format settings, Endianness : Big
Codec ID : A_DTS
Duration : 1h 38mn
Bit rate mode : Constant
Bit rate : 1 510 Kbps
Channel(s) : 6 channels
Channel positions : Front: L C R, Side: L R, LFE
Sampling rate : 48.0 KHz
Bit depth : 24 bits
Compression mode : Lossy
Delay relative to video : 11ms
Stream size : 1.03 GiB (12%)
Language : English
Default : No
Forced : No
Text #4
ID : 4
Format : UTF-8
Codec ID : S_TEXT/UTF8
Codec ID/Info : UTF-8 Plain Text
Default : Yes
Forced : No
Text #5
ID : 5
Format : UTF-8
Codec ID : S_TEXT/UTF8
Codec ID/Info : UTF-8 Plain Text
Title : Full
Language : English
Default : No
Forced : No
Скріншоти



Джерело: &
Особиста оцінка: 10 - без зайвих вагань рекомендую всім!
Особиста оцінка якості 3D : 10 - Супер !
3D перевірено з флешки на внутрішньому плеєрі телевізора LG



 Трекер:    Зареєстрований   

Завантажити / скачати фільм українською



відео для новачків



 Зареєстрований:   2014-12-06 15:30
 Розмір:   8.88 GB 
 Оцінка фільму:   7.8/10 (Голосів: 9)
   
Інші релізи
ingwar 
Модератор літератури


З нами з: 08.03.08
Востаннє: 09.12.16
Повідомлень: 1200

2014-12-06 16:32  
Поясніть, будь-ласка: це 3Д можна дивитися як звичайне кіно з монітора, чи потребує чогось спеціального?
3d_reliz 
Частий відвідувач


З нами з: 28.09.14
Востаннє: 15.03.16
Повідомлень: 35

2014-12-06 16:40  
можна якщо в плеері включити тільки половину кадру, верхнього або нижнього. в KMplayer права кнопка миші, 3D screen control, Up/Down -> Up. на телевізорах, читай інструкцію. ну а щоб дивитись на простому моніторі 3Д то треба синьо червоні окуляри. або спеціальний монітор з окулярами.
GEORGKys 
Свій


З нами з: 11.03.11
Востаннє: 09.12.16
Повідомлень: 65

2014-12-07 13:22  
Дуже вдячний за 3D реліз, чомусь їх досить мало, хоча на сьогодні це досить актуально...
3d_reliz 
Частий відвідувач


З нами з: 28.09.14
Востаннє: 15.03.16
Повідомлень: 35

2014-12-07 16:00  
можливо через те що попит невеликий, маю ще вартових галактики і планету мавп, думаю сьогодні виставлю ще мавп, швидкість в мене тільки 2 мегабіти... отже поки 100 % не скачають першого, другого не ставлю.
lenchiku 
Новенький


З нами з: 03.03.10
Востаннє: 05.11.15
Повідомлень: 2

2014-12-07 16:45  
швидкості чомусь взагалі нема(((
3d_reliz 
Частий відвідувач


З нами з: 28.09.14
Востаннє: 15.03.16
Повідомлень: 35

2014-12-07 17:01  
16 чоловік качає... 90 % відвантажено......... то щось у вас.
lenchiku 
Новенький


З нами з: 03.03.10
Востаннє: 05.11.15
Повідомлень: 2

2014-12-07 17:06  
....та йде)))...тільки зазвичай 11 мБ/с...а тут 190 кБ/с....92% - качаю 1,5 год
archi86 
Свій


З нами з: 06.01.15
Востаннє: 09.12.16
Повідомлень: 90

2015-01-14 21:52  
Здраствуйте, підскажіть в якій піктограмі краще дивитись горизонтальна чи вертикальна.
-VipeR- 
VIP


З нами з: 17.07.08
Востаннє: 09.12.16
Повідомлень: 275

2016-03-11 15:15  
На диво, не поганий фільм 6/10. Звичайно подвиги Геркулеса дають змогу сценаристам більше розігнатися, а тут якось куценько...
3D ефекти на пристойному рівні!

jonnyzero 
Свій


З нами з: 04.01.09
Востаннє: 05.12.16
Повідомлень: 55

2016-06-18 19:13  
Люди дайте швидкості. Дякую
Ваш часовий пояс: GMT + 2 Години

Нова тема   Відповісти