Завантажити та скачати торренти українською


Вбивця / Point of No Return / The Assassin (1993) 720p 2xUkr/Eng | Sub Eng

Нові коментарі

Нова тема   Відповісти
Автор Повідомлення
Anonymous 







2014-12-06 15:28  
Вбивця / Point of No Return / The Assassin (1993) 720p 2xUkr/Eng | Sub Eng



Українізований постер


Жанр: бойовик, трилер, кримінальний, пригодницький
Країна: США



Кінокомпанія: Warner Bros., Art Linson Productions
Режисер: Джон Бедем / John Badham
Актори: Бріджит Фонда, Ґебріел Бірн, Дермот Малруні, Міґель Феррер, Гарві Кейтел...

Сюжет:
Під час нічного пограбування в аптеці, Меґґі, перебуваючи у наркотичному трансі, вбиває поліцейського, за що її засуджують до смертної кари. Однак їй дають другий шанс. Або ж вона стане найманим вбивцею уряду, або ж її стратять. Вона вибирає перше ...життя. Чітко і не залишаючи слідів вона ліквідує людей...


Рейтинг MPAA: R - особам до 17 років обов'язкова присутність батьків або дорослого опікуна
Вікова категорія: 16+

Тривалість: 01:48:20
Якість: 720p
Відео:
кодек:
розмір кадру: 1280 х 534
бітрейт: 5130 кбіт/с

Аудіо # 1:
мова: українська
переклад: багатоголосий закадровий
кодек: 2.0
бітрейт: 192 кбіт/с

Аудіо # 2:
мова: українська
переклад: двоголосий закадровий
ролі озвучили: Лариса Руснак та Михайло Жонін
кодек: 5.1
бітрейт: 1509 кбіт/с
примітка: доріжку створено шляхом накладанням чистих студійних голосів на центр декодованого TrueHD.

Аудіо # 3:
мова: англійська
переклад: оригінал
кодек: 5.1
бітрейт: 1510 кбіт/с

Субтитри:
мова: англійська
тип: програмні (м'які)
формат: *.srt
MediaInfo
Код:
General
Unique ID                   : 214611233922662188648339295883362857764 (0xA1749EC4348CD2529A73142A42387324)
Complete name               : Point of No Return (1993) [2xUkr,Eng sub.Eng] 720p [Hurtom & HDClub].mkv
Format                      : Matroska
Format version              : Version 4 / Version 2
File size                   : 6.31 GiB
Duration                    : 1h 48mn
Overall bit rate mode       : Variable
Overall bit rate            : 8 340 Kbps
Movie name                  : Вбивця / Point of No Return / The Assassin (1993) 720p [Hurtom & HDClub]
Encoded date                : UTC 2014-12-05 20:04:05
Writing application         : mkvmerge v7.3.0 ('Nouages') 64bit built on Oct 22 2014 18:53:34
Writing library             : libebml v1.3.0 + libmatroska v1.4.1
DURATION                    : 01:48:22.336000000
NUMBER_OF_FRAMES            : 203198
NUMBER_OF_BYTES             : 156056064
_STATISTICS_WRITING_APP     : mkvmerge v7.3.0 ('Nouages') 64bit built on Oct 22 2014 18:53:34
_STATISTICS_WRITING_DATE_UT : 2014-12-05 20:04:05
_STATISTICS_TAGS            : BPS DURATION NUMBER_OF_FRAMES NUMBER_OF_BYTES

Video
ID                          : 1
Format                      : AVC
Format/Info                 : Advanced Video Codec
Format profile              : [email protected]
Format settings, CABAC      : Yes
Format settings, ReFrames   : 3 frames
Codec ID                    : V_MPEG4/ISO/AVC
Duration                    : 1h 48mn
Bit rate mode               : Variable
Bit rate                    : 5 130 Kbps
Maximum bit rate            : 38.0 Mbps
Width                       : 1 280 pixels
Height                      : 534 pixels
Display aspect ratio        : 2.40:1
Frame rate mode             : Constant
Frame rate                  : 23.976 fps
Color space                 : YUV
Chroma subsampling          : 4:2:0
Bit depth                   : 8 bits
Scan type                   : Progressive
Bits/(Pixel*Frame)          : 0.313
Stream size                 : 3.76 GiB (60%)
Title                       : Вбивця / Point of No Return / The Assassin / Точка невозврата (1993) 720p [HDClub-HANSMER]
Writing library             : core 67 r1153M 7b6ce6a
Encoding settings           : cabac=1 / ref=3 / deblock=1:-2:-1 / analyse=0x3:0x113 / me=umh / subme=9 / psy_rd=1.0:0.0 / mixed_ref=1 / me_range=24 / chroma_me=1 / trellis=0 / 8x8dct=1 / cqm=0 / deadzone=21,11 / chroma_qp_offset=-2 / threads=6 / nr=0 / decimate=1 / mbaff=0 / bframes=3 / b_pyramid=0 / b_adapt=2 / b_bias=0 / direct=3 / wpredb=1 / keyint=24 / keyint_min=1 / scenecut=40 / rc=2pass / bitrate=5130 / ratetol=1.0 / qcomp=0.50 / qpmin=10 / qpmax=51 / qpstep=4 / cplxblur=20.0 / qblur=0.5 / vbv_maxrate=38000 / vbv_bufsize=30000 / ip_ratio=1.10 / pb_ratio=1.10 / aq=1:1.00
Language                    : English
Default                     : Yes
Forced                      : No
DURATION                    : 01:48:20.322000000
NUMBER_OF_FRAMES            : 155852
NUMBER_OF_BYTES             : 4166538272
_STATISTICS_WRITING_APP     : mkvmerge v7.3.0 ('Nouages') 64bit built on Oct 22 2014 18:53:34
_STATISTICS_WRITING_DATE_UT : 2014-12-05 20:04:05
_STATISTICS_TAGS            : BPS DURATION NUMBER_OF_FRAMES NUMBER_OF_BYTES

Audio #1
ID                          : 2
Format                      : AC-3
Format/Info                 : Audio Coding 3
Mode extension              : CM (complete main)
Format settings, Endianness : Big
Codec ID                    : A_AC3
Duration                    : 1h 48mn
Bit rate mode               : Constant
Bit rate                    : 192 Kbps
Channel(s)                  : 2 channels
Channel positions           : Front: L R
Sampling rate               : 48.0 KHz
Bit depth                   : 16 bits
Compression mode            : Lossy
Stream size                 : 149 MiB (2%)
Title                       : MVO [ICTV] 2.0 192 kbps [Hurtom-Sando7]
Language                    : Ukrainian
Default                     : Yes
Forced                      : No

Audio #2
ID                          : 3
Format                      :
Format/Info                 : Digital Theater Systems
Mode                        : 16
Format settings, Endianness : Big
Codec ID                    : A_DTS
Duration                    : 1h 48mn
Bit rate mode               : Constant
Bit rate                    : 1 509 Kbps
Channel(s)                  : 6 channels
Channel positions           : Front: L C R, Side: L R, LFE
Sampling rate               : 48.0 KHz
Bit depth                   : 16 bits
Compression mode            : Lossy
Stream size                 : 1.14 GiB (18%)
Title                       : DVO [Novyj] 5.1 1509 kbps [HDClub & Ukrainian Studio Production]
Language                    : Ukrainian
Default                     : No
Forced                      : No

Audio #3
ID                          : 4
Format                      :
Format/Info                 : Digital Theater Systems
Mode                        : 16
Format settings, Endianness : Big
Codec ID                    : A_DTS
Duration                    : 1h 48mn
Bit rate mode               : Constant
Bit rate                    : 1 510 Kbps
Channel(s)                  : 6 channels
Channel positions           : Front: L C R, Side: L R, LFE
Sampling rate               : 48.0 KHz
Bit depth                   : 24 bits
Compression mode            : Lossy
Stream size                 : 1.14 GiB (18%)
Title                       : Original 5.1 1510 Kbps
Language                    : English
Default                     : No
Forced                      : No

Text
ID                          : 5
Format                      : UTF-8
Codec ID                    : S_TEXT/UTF8
Codec ID/Info               : UTF-8 Plain Text
Language                    : English
Default                     : No
Forced                      : No





Джерела та подяки: &
ріп відео, оригінальні звук та субтитри - HDL (HDbits), HANSMER (HDClub); українські доріжки: ICTV - Sando7 - запис з ТБ та зведення, Новий - HDClub & Ukrainian Studio Production, українізований постер - hellforces; фільмографії акторів та інформація про озвучення - Віктор (всі - Гуртом).

Особиста оцінка: 8 - мені сподобалося


ЗАЛИШАЙТЕСЬ ЯКОМОГА ДОВШЕ НА РОЗДАЧІ!

СКАЧАВ САМ - ДАЙ СКАЧАТИ ІНШИМ


Срібний реліз (на рейтинг впливає 50% завантаженого)
 Трекер:    Зареєстрований   

Завантажити / скачати фільм українською



відео для новачків



 Зареєстрований:   2014-12-06 15:28
 Розмір:   6.31 GB 
 Оцінка фільму:   2.9/10 (Голосів: 13)
   
Інші релізи
   Вбивця / Point of No Return / The Assassin (1993) 2xUkr Sando7  3 / 0   1.46 GB   2014-12-05 02:12 
waldi-hurtom 
VIP


З нами з: 07.10.12
Востаннє: 10.12.16
Повідомлень: 613

2014-12-22 21:47  
Рідкісний випадок, коли рімейк здається кращим за першоджерело (Нікіта), навмисно порівняв. Єдиний недолік - жахлива музика у першій половині фільму. Дякую за реліз! 8 з 10.
Ваш часовий пояс: GMT + 2 Години

Нова тема   Відповісти