Завантажити та скачати торренти українською


Супергеройське кіно / Superhero Movie (2008) 720p 2xUkr/Eng | Sub Ukr/Eng

Нові коментарі

Нова тема   Відповісти
Автор Повідомлення
Anonymous 







2014-12-05 23:20  
Супергеройське кіно / Superhero Movie (2008) 720p 2xUkr/Eng | Sub Ukr/Eng



Жанр: пригодницький, комедія, пародія
Країна: США



Кінокомпанія: Dimension Films
Режисер: Крейг Мазін / Craig Mazin
Актори: Дрейк Белл (Drake Bell), Сара Пакстон / Sara Paxton, Крістофер МакДоналд / Christopher McDonald, Леслі Нільсен (Leslie Nielsen), Кевін Харт / Kevin Hart, Меріон Росс / Marion Ross, Райан Хансен / Ryan Hansen, Кіт Девід / Keith David, Брент Спайнер / Brent Spiner, Роберт Джой / Robert Joy, Джеффрі Тембор / Jeffrey Tambor, Роберт Хейс / Robert Hays, Ніколь Салліван / Nicole Sullivan, Трейсі Морган / Tracy Morgan, Реджіна Голл / Regina Hall, Майлз Фішер Miles Fisher, Курт Фуллер / Kurt Fuller, Майк Пападжон / Michael Papajohn, Памела Андерсон / Pamela Anderson

Сюжет:
Фільм-пародія на супергероїв - від Бетмена до Фантастичної Четвірки. Американського школяра вкусила бабка, але не та про яку ви подумали. Мутована комаха з великими очима стала початком нової-старої кіноісторії під назвою «Супергеройське кіно».


Рейтинг MPAA: PG-13 - дітям до 13 років перегляд не бажаний
Вікова категорія: 12+

Тривалість: 01:22:30
Якість:
Відео:
кодек:
розмір кадру: 1280 х 720
бітрейт: 8800 кбіт/с

Аудіо # 1:
мова: українська
переклад: багатоголосий закадровий
кодек: 5.1
бітрейт: 384 кбіт/с
Інформація про озвучення
Переклад: Сергій Ковальчук
Ролі озвучили: Дмитро Завадський, Леслі Нільсен - Анатолій Пашнін, Ніна Касторф, Крістофер МакДональд — Микола Боклан, Євген Пашин та інші.
Аудіо # 2:
мова: українська
переклад: двоголосий закадровий
ролі озвучили: Дмитро Завадський та Лідія Муращенко
кодек: 2.0
бітрейт: 192 кбіт/с

Аудіо # 3:
мова: англійська
переклад: оригінал
кодек: 5.1
бітрейт: 1509 кбіт/с

Субтитри:
мова: українська
тип: програмні (м'які)
формат: *.srt

Субтитри:
мова: англійська
тип: програмні (м'які)
формат: *.srt

Збережено оригінальні розділи, як на Blu-ray.
MediaInfo та log
Код:
General
Unique ID                   : 222231138232958968493239250773896514503 (0xA730290DFEF7915AB197581A14EACBC7)
Complete name               : Superhero Movie (2008) [2xUkr,Eng sub.Ukr,Eng] 720p [Hurtom & HQClub].mkv
Format                      : Matroska
Format version              : Version 4 / Version 2
File size                   : 6.27 GiB
Duration                    : 1h 22mn
Overall bit rate            : 10.9 Mbps
Movie name                  : Супергеройське кіно / Superhero Movie (2008) 720p [Hurtom & HQClub]
Encoded date                : UTC 2014-12-05 17:41:32
Writing application         : mkvmerge v7.3.0 ('Nouages') 64bit built on Oct 22 2014 18:53:34
Writing library             : libebml v1.3.0 + libmatroska v1.4.1
DURATION                    : 01:16:56.422000000
NUMBER_OF_FRAMES            : 1066
NUMBER_OF_BYTES             : 50277
_STATISTICS_WRITING_APP     : mkvmerge v7.3.0 ('Nouages') 64bit built on Oct 22 2014 18:53:34
_STATISTICS_WRITING_DATE_UT : 2014-12-05 17:41:32
_STATISTICS_TAGS            : BPS DURATION NUMBER_OF_FRAMES NUMBER_OF_BYTES

Video
ID                          : 1
Format                      : AVC
Format/Info                 : Advanced Video Codec
Format profile              : [email protected]
Format settings, CABAC      : Yes
Format settings, ReFrames   : 7 frames
Codec ID                    : V_MPEG4/ISO/AVC
Duration                    : 1h 22mn
Bit rate                    : 8 800 Kbps
Width                       : 1 280 pixels
Height                      : 720 pixels
Display aspect ratio        : 16:9
Frame rate mode             : Constant
Frame rate                  : 25.000 fps
Color space                 : YUV
Chroma subsampling          : 4:2:0
Bit depth                   : 8 bits
Scan type                   : Progressive
Bits/(Pixel*Frame)          : 0.382
Stream size                 : 4.94 GiB (79%)
Title                       : Супергеройське кіно / Superhero Movie / Супергеройское кино (2008) 720p [HQClub-Joker]
Writing library             : core 142 r2491 24e4fed
Encoding settings           : cabac=1 / ref=8 / deblock=1:-1:-1 / analyse=0x3:0x113 / me=umh / subme=11 / psy=1 / psy_rd=1.10:0.10 / mixed_ref=1 / me_range=32 / chroma_me=1 / trellis=2 / 8x8dct=1 / cqm=0 / deadzone=21,11 / fast_pskip=1 / chroma_qp_offset=-3 / threads=6 / lookahead_threads=1 / sliced_threads=0 / nr=0 / decimate=1 / interlaced=0 / bluray_compat=0 / constrained_intra=0 / bframes=13 / b_pyramid=1 / b_adapt=2 / b_bias=0 / direct=3 / weightb=1 / open_gop=0 / weightp=2 / keyint=250 / keyint_min=25 / scenecut=40 / intra_refresh=0 / rc_lookahead=40 / rc=2pass / mbtree=1 / bitrate=8800 / ratetol=1.0 / qcomp=0.70 / qpmin=0 / qpmax=69 / qpstep=4 / cplxblur=20.0 / qblur=0.5 / vbv_maxrate=50000 / vbv_bufsize=62500 / nal_hrd=none / filler=0 / ip_ratio=1.40 / aq=2:0.90
Language                    : English
Default                     : Yes
Forced                      : No
DURATION                    : 01:22:29.920000000
NUMBER_OF_FRAMES            : 123748
NUMBER_OF_BYTES             : 5439718120
_STATISTICS_WRITING_APP     : mkvmerge v7.3.0 ('Nouages') 64bit built on Oct 22 2014 18:53:34
_STATISTICS_WRITING_DATE_UT : 2014-12-05 17:41:32
_STATISTICS_TAGS            : BPS DURATION NUMBER_OF_FRAMES NUMBER_OF_BYTES

Audio #1
ID                          : 2
Format                      : AC-3
Format/Info                 : Audio Coding 3
Mode extension              : CM (complete main)
Format settings, Endianness : Big
Codec ID                    : A_AC3
Duration                    : 1h 22mn
Bit rate mode               : Constant
Bit rate                    : 384 Kbps
Channel(s)                  : 6 channels
Channel positions           : Front: L C R, Side: L R, LFE
Sampling rate               : 48.0 KHz
Bit depth                   : 16 bits
Compression mode            : Lossy
Stream size                 : 227 MiB (4%)
Title                       : MVO [DVD R5-West Video] АС3 5.1 384 kbps
Language                    : Ukrainian
Default                     : Yes
Forced                      : No

Audio #2
ID                          : 3
Format                      : AC-3
Format/Info                 : Audio Coding 3
Mode extension              : CM (complete main)
Format settings, Endianness : Big
Codec ID                    : A_AC3
Duration                    : 1h 22mn
Bit rate mode               : Constant
Bit rate                    : 192 Kbps
Channel(s)                  : 2 channels
Channel positions           : Front: L R
Sampling rate               : 48.0 KHz
Bit depth                   : 16 bits
Compression mode            : Lossy
Stream size                 : 113 MiB (2%)
Title                       : DVO [ICTV] 2.0 192 kbps [Hurtom-Xshot,4erkov]
Language                    : Ukrainian
Default                     : No
Forced                      : No

Audio #3
ID                          : 4
Format                      :
Format/Info                 : Digital Theater Systems
Mode                        : 16
Format settings, Endianness : Big
Codec ID                    : A_DTS
Duration                    : 1h 22mn
Bit rate mode               : Constant
Bit rate                    : 1 509 Kbps
Channel(s)                  : 6 channels
Channel positions           : Front: L C R, Side: L R, LFE
Sampling rate               : 48.0 KHz
Bit depth                   : 16 bits
Compression mode            : Lossy
Stream size                 : 890 MiB (14%)
Title                       : Original 5.1 1509 kbps
Language                    : English
Default                     : No
Forced                      : No

Text #1
ID                          : 5
Format                      : UTF-8
Codec ID                    : S_TEXT/UTF8
Codec ID/Info               : UTF-8 Plain Text
Language                    : Ukrainian
Default                     : No
Forced                      : No

Text #2
ID                          : 6
Format                      : UTF-8
Codec ID                    : S_TEXT/UTF8
Codec ID/Info               : UTF-8 Plain Text
Language                    : English
Default                     : No
Forced                      : No

Menu
00:00:00.000                : :Chapter 01
00:04:46.000                : :Chapter 02
00:08:42.000                : :Chapter 03
00:13:17.000                : :Chapter 04
00:18:58.000                : :Chapter 05
00:28:54.400                : :Chapter 06
00:36:27.000                : :Chapter 07
00:45:11.760                : :Chapter 08
00:53:54.599                : :Chapter 09
00:59:51.360                : :Chapter 10
01:05:20.599                : :Chapter 11
01:07:59.000                : :Chapter 12
01:10:46.118                : :Chapter 13
01:13:00.000                : :Chapter 14
01:13:57.238                : :Chapter 15
01:17:25.279                : :Chapter 16
01:22:28.960                : :Chapter 17


Код:
frame I:1287 Avg QP:14.69 size:166981
frame P:25875 Avg QP:17.19 size: 65317
frame B:96586 Avg QP:19.03 size: 36597

consecutive B-frames: consecutive B-frames: 2.7% 2.9% 6.2% 13.9% 18.0% 43.6% 4.8% 1.0% 1.7% 0.9% 1.0% 0.7% 1.2% 1.5%

ref P L0: 52.7% 10.6% 17.2% 7.9% 5.0% 3.6% 2.8% 0.2% 0.0%
ref B L0: 75.5% 12.1% 6.5% 3.0% 1.9% 0.9%
ref B L1: 91.2% 8.8%




Джерела та подяки: &
ріп відео, оригінальні звук та субтитри - Joker (HQCLUB); українська доріжка (ICTV) - Xshot - зведення, 4erkov - запис з ТБ; фільмографії акторів та інформація про озвучення - Віктор (всі - Гуртом).


ЗАЛИШАЙТЕСЬ ЯКОМОГА ДОВШЕ НА РОЗДАЧІ!

СКАЧАВ САМ - ДАЙ СКАЧАТИ ІНШИМ


 Трекер:    Зареєстрований   

Завантажити / скачати фільм українською



відео для новачків



 Зареєстрований:   2014-12-05 23:21
 Розмір:   6.27 GB 
 Оцінка фільму:   5.5/10 (Голосів: 20)
   
Інші релізи
vasyl599 
Новенький


З нами з: 11.09.15
Востаннє: 04.12.16
Повідомлень: 1

2016-06-21 12:10  
хто може роздати фільм супергеройське кіно
Anonymous 







2016-06-21 13:11  
vasyl599,
igor911 написано:
Мої релізи, роздаю цілодобово 10 Мбіт/с

Ваш часовий пояс: GMT + 2 Години

Нова тема   Відповісти