Завантажити та скачати торренти українською


Читай по губах / Read My Lips / Sur mes lèvres (2001) AVC Ukr | sub Eng

Нові коментарі

Нова тема   Відповісти
Автор Повідомлення
DеLight 
Відео Гуртом - фільмокрай
Відео Гуртом - фільмокрай


З нами з: 24.08.11
Востаннє: 17.11.16
Повідомлень: 664

2014-12-05 19:54  
Читай по губах / Read My Lips / Sur mes lèvres (2001) AVC Ukr | sub Eng


Читай по губах / Read My Lips / Sur mes lèvres (2001) AVC Ukr | sub Eng


Жанр: драма, кримінальний, романтичний, трилер
Країна: Франція





Кінокомпанія: Canal+, Centre National de la Cinématographie (CNC), Ciné B, France 2 Cinéma, Pathé Image Production, Sédif Productions
Режисер: Жак Одіар / Jacques Audiard
Актори: Венсан Кассель / Vincent Cassel, Еммануель Девос / Emmanuelle Devos, Олів’є Ґурме / Olivier Gourmet, Олів’є Пер’є / Olivier Perrier, Олівія Бонамі / Olivia Bonamy, Бернар Алан / Bernard Alane, Селін Самі / Céline Samie та інші

Сюжет:
Карла Бем багато років працює секретаркою у торговельній компанії. В її обов'язки входить буквально все: вона і друкарка, і секретар на телефоні; вона складає кошториси і приймає скарги. І що вона одержує натомість? Зарплатня мізерна, поводяться як із брудом, і ганяють як собаку. Карла сита по горло. Вона вважає, що заслуговує більшого. Але на що може розраховувати неособливо гарненька 35-літня жінка зі слуховим апаратом у цьому чоловічому світі? Порятунок приходить у вигляді Пола Анджели, нового практиканта. Полу 25 років і він не досяг успіхів у своїй роботі - по правді говорячи, він просто безнадійний. Але в нього інші достоїнства - він злодій, тільки що з в'язниці, і готовий вступити в угоду. "Щоб вальсувати, потрібні двоє". Вона вчить його гарних манер, він її - поганих. Перші результати обнадійливі...


Тривалість: 01:59:02
Якість: AVC

Відео:
кодек:
розмір кадру: 996 x 536
бітрейт: 1 729 кб/с

Аудіо: Гамма
мова: українська
переклад: двоголосий закадровий | студія «Стар-Майстер»
кодек: 2.0
бітрейт: 192 кб/с

Субтитри:
мова: англійська
тип: програмні (м'які)
формат: *.srt


MI
Код:

General
Unique ID                      : 178377761831989659744139990744396113252 (0x86324EAAB8A7496BB1D787400512A564)
Complete name                  : D:\Torrents\Sur mes levres (2001) AVC [ukr] [Hurtom].mkv
Format                         : Matroska
Format version                 : Version 4 / Version 2
File size                      : 1.60 GiB
Duration                       : 1h 59mn
Overall bit rate               : 1 922 Kbps
Encoded date                   : UTC 2014-12-03 17:05:09
Writing application            : mkvmerge v7.2.0 ('On Every Street') 64bit built on Sep 13 2014 15:52:10
Writing library                : libebml v1.3.0 + libmatroska v1.4.1
DURATION                       : 01:59:02.080000000
NUMBER_OF_FRAMES               : 223190
NUMBER_OF_BYTES                : 171409920
_STATISTICS_WRITING_APP        : mkvmerge v7.2.0 ('On Every Street') 64bit built on Sep 13 2014 15:52:10
_STATISTICS_WRITING_DATE_UTC   : 2014-12-03 17:05:09
_STATISTICS_TAGS               : BPS DURATION NUMBER_OF_FRAMES NUMBER_OF_BYTES

Video
ID                             : 1
Format                         : AVC
Format/Info                    : Advanced Video Codec
Format profile                 : [email protected]
Format settings, CABAC         : Yes
Format settings, ReFrames      : 11 frames
Codec ID                       : V_MPEG4/ISO/AVC
Duration                       : 1h 59mn
Bit rate                       : 1 729 Kbps
Width                          : 996 pixels
Height                         : 536 pixels
Display aspect ratio           : 1.85:1
Frame rate mode                : Constant
Frame rate                     : 24.000 fps
Color space                    : YUV
Chroma subsampling             : 4:2:0
Bit depth                      : 8 bits
Scan type                      : Progressive
Bits/(Pixel*Frame)             : 0.135
Stream size                    : 1.41 GiB (88%)
Title                          : Sur mes levres (2001) AVC [potroks]
Writing library                : core 130 r2273 b3065e6
Encoding settings              : cabac=1 / ref=11 / deblock=1:-2:-2 / analyse=0x3:0x133 / me=umh / subme=11 / psy=1 / psy_rd=1.02:0.00 / mixed_ref=1 / me_range=32 / chroma_me=1 / trellis=2 / 8x8dct=1 / cqm=0 / deadzone=21,11 / fast_pskip=0 / chroma_qp_offset=-2 / threads=6 / lookahead_threads=1 / sliced_threads=0 / nr=0 / decimate=1 / interlaced=0 / bluray_compat=0 / constrained_intra=0 / bframes=12 / b_pyramid=2 / b_adapt=2 / b_bias=0 / direct=3 / weightb=1 / open_gop=0 / weightp=2 / keyint=250 / keyint_min=23 / scenecut=40 / intra_refresh=0 / rc_lookahead=100 / rc=2pass / mbtree=1 / bitrate=1729 / ratetol=1.0 / qcomp=0.70 / qpmin=0 / qpmax=69 / qpstep=4 / cplxblur=20.0 / qblur=0.5 / vbv_maxrate=20000 / vbv_bufsize=20000 / nal_hrd=none / ip_ratio=1.35 / aq=1:0.80
Language                       : French
Default                        : Yes
Forced                         : No
DURATION                       : 01:59:01.964000000
NUMBER_OF_FRAMES               : 171407
NUMBER_OF_BYTES                : 1542470632
_STATISTICS_WRITING_APP        : mkvmerge v7.2.0 ('On Every Street') 64bit built on Sep 13 2014 15:52:10
_STATISTICS_WRITING_DATE_UTC   : 2014-12-03 17:05:09
_STATISTICS_TAGS               : BPS DURATION NUMBER_OF_FRAMES NUMBER_OF_BYTES

Audio
ID                             : 2
Format                         : AC-3
Format/Info                    : Audio Coding 3
Mode extension                 : CM (complete main)
Format settings, Endianness    : Big
Codec ID                       : A_AC3
Duration                       : 1h 59mn
Bit rate mode                  : Constant
Bit rate                       : 192 Kbps
Channel(s)                     : 2 channels
Channel positions              : Front: L R
Sampling rate                  : 48.0 KHz
Bit depth                      : 16 bits
Compression mode               : Lossy
Stream size                    : 163 MiB (10%)
Title                          : DVO [Star Master Studio] - Gamma TV
Language                       : Ukrainian
Default                        : Yes
Forced                         : No

Text
ID                             : 3
Format                         : UTF-8
Codec ID                       : S_TEXT/UTF8
Codec ID/Info                  : UTF-8 Plain Text
Title                          : Full
Language                       : English
Default                        : No
Forced                         : No

Скріншоти





















Джерело: Ріп: | За запис з ТБ подяка dvorsky


Срібний реліз (на рейтинг впливає 50% завантаженого)
 Трекер:    Зареєстрований   

Завантажити / скачати фільм українською



відео для новачків



 Зареєстрований:   2014-12-05 19:54
 Розмір:   1.6 GB 
 Оцінка фільму:   8.3/10 (Голосів: 8)
   
Інші релізи
Ваш часовий пояс: GMT + 2 Години

Нова тема   Відповісти