Завантажити та скачати торренти українською


Переполох у гуртожитку / National Lampoon Presents Dorm Daze (2003) 720p Ukr/Eng | Sub Eng

Нові коментарі

Нова тема   Відповісти
Автор Повідомлення
Anonymous 







2014-12-03 19:13  
Переполох у гуртожитку / National Lampoon Presents Dorm Daze (2003) 720p Ukr/Eng | Sub Eng



Жанр: мелодрама, комедія, кримінальний, детектив
Країна: США



Кінокомпанія: National Lampoon Productions
Режисер: Девід Хілленбренд / David Hillenbrand, Скотт Хілленбренд / Scott Hillenbrand
Актори: Татьяна Алі, Боті Блісс, Гейбл Карр, Патрік Кавано, Джеймс ДеБелло, Маріе Дельфіно, Тоні Денмен, Даніель Фішел, Кортні Гейнс, Грегорі Хінтон

Сюжет:
Все змішалося у гуртожитку університету Білінглсей! До Різдва - три дні, студенти охоплені передсвятковою лихоманкою. Вони веселяться на вечірках, і падають жертвами стріл пустотливого Купідона. Киплять пристрасті, вибухають гормони, грає кров! А тим часом неминуче насуваються іспити, строгі професори не дадуть спуску прогульникам і ледарям. Але Макмартін Хол і думати забув про книги, він твердо вирішив, що його розумник-братик повинен неодмінно розлучитися з невинністю до настання Нового року. Для реалізації підступного задуму він сплатив послуги професіоналки класу екстра, спекотної красуні Домінік. Вона проникає в гуртожиток, але ідеальний план несподівано дає збій. В цей час в університет за програмою обміну студентами прибуває чарівна французка, що майже не говорить по-англійськи. Її ім'я теж Домінік. Тут і починається справжня гулянка, плутанина в студентському гуртожитку!


Рейтинг MPAA: R - особам до 17 років обов'язкова присутність батьків або дорослого опікуна
Вікова категорія: 16+

Тривалість: 01:32:27
Якість: 720p [CRiSC]
Відео:
кодек:
розмір кадру: 1280x670
бітрейт: 7366 кбіт/с

Аудіо # 1:
мова: українська
переклад: двоголосий закадровий - Новий Канал
кодек: 2.0
бітрейт: 192 кбіт/с

Аудіо # 2:
мова: англійська
переклад: оригінал
кодек: 5.1
бітрейт: 768 кбіт/с

Субтитри:
мова: англійська
тип: програмні (м'які)
формат: *.srt

Збережено оригінальні розділи, як на Blu-ray.
MediaInfo
Код:
General
Unique ID                   : 254614893988050017997006050737386879751 (0xBF8D0B7C110F6AD9A05E9A61D7A6FB07)
Complete name               : National Lampoon Presents Dorm Daze (2003) [Ukr,Eng sub.Eng] 720p [Hurtom & HDClub].mkv
Format                      : Matroska
Format version              : Version 4 / Version 2
File size                   : 5.61 GiB
Duration                    : 1h 36mn
Overall bit rate            : 8 322 Kbps
Movie name                  : Переполох у гуртожитку / National Lampoon Presents Dorm Daze (2003) 720p [Hurtom & HDClub]
Encoded date                : UTC 2014-12-03 09:53:13
Writing application         : mkvmerge v7.3.0 ('Nouages') 64bit built on Oct 22 2014 18:53:34
Writing library             : libebml v1.3.0 + libmatroska v1.4.1
DURATION                    : 01:29:03.791000000
NUMBER_OF_FRAMES            : 1394
NUMBER_OF_BYTES             : 50430
_STATISTICS_WRITING_APP     : mkvmerge v7.3.0 ('Nouages') 64bit built on Oct 22 2014 18:53:34
_STATISTICS_WRITING_DATE_UT : 2014-12-03 09:53:13
_STATISTICS_TAGS            : BPS DURATION NUMBER_OF_FRAMES NUMBER_OF_BYTES

Video
ID                          : 1
Format                      : AVC
Format/Info                 : Advanced Video Codec
Format profile              : [email protected]
Format settings, CABAC      : Yes
Format settings, ReFrames   : 9 frames
Codec ID                    : V_MPEG4/ISO/AVC
Duration                    : 1h 36mn
Bit rate                    : 7 366 Kbps
Width                       : 1 280 pixels
Height                      : 670 pixels
Display aspect ratio        : 1.910
Frame rate mode             : Constant
Frame rate                  : 24.000 fps
Color space                 : YUV
Chroma subsampling          : 4:2:0
Bit depth                   : 8 bits
Scan type                   : Progressive
Bits/(Pixel*Frame)          : 0.358
Stream size                 : 4.85 GiB (86%)
Title                       : Переполох у гуртожитку / National Lampoon Presents Dorm Daze / Переполох в общаге (2003) 720p [CRiSC]
Writing library             : core 125 r2200 999b753
Encoding settings           : cabac=1 / ref=9 / deblock=1:-3:-3 / analyse=0x3:0x133 / me=umh / subme=11 / psy=1 / psy_rd=1.00:0.00 / mixed_ref=1 / me_range=64 / chroma_me=1 / trellis=2 / 8x8dct=1 / cqm=0 / deadzone=21,11 / fast_pskip=0 / chroma_qp_offset=-2 / threads=12 / lookahead_threads=2 / sliced_threads=0 / nr=0 / decimate=1 / interlaced=0 / bluray_compat=0 / constrained_intra=0 / bframes=9 / b_pyramid=2 / b_adapt=2 / b_bias=0 / direct=3 / weightb=1 / open_gop=0 / weightp=2 / keyint=250 / keyint_min=24 / scenecut=40 / intra_refresh=0 / rc_lookahead=40 / rc=2pass / mbtree=0 / bitrate=7366 / ratetol=1.0 / qcomp=0.60 / qpmin=0 / qpmax=69 / qpstep=4 / cplxblur=20.0 / qblur=0.5 / vbv_maxrate=50000 / vbv_bufsize=62500 / nal_hrd=none / ip_ratio=1.10 / pb_ratio=1.10 / aq=1:0.60
Language                    : English
Default                     : Yes
Forced                      : No
DURATION                    : 01:36:27.292000000
NUMBER_OF_FRAMES            : 138895
NUMBER_OF_BYTES             : 5323903743
_STATISTICS_WRITING_APP     : mkvmerge v7.3.0 ('Nouages') 64bit built on Oct 22 2014 18:53:34
_STATISTICS_WRITING_DATE_UT : 2014-12-03 09:53:13
_STATISTICS_TAGS            : BPS DURATION NUMBER_OF_FRAMES NUMBER_OF_BYTES

Audio #1
ID                          : 2
Format                      : AC-3
Format/Info                 : Audio Coding 3
Mode extension              : CM (complete main)
Format settings, Endianness : Big
Codec ID                    : A_AC3
Duration                    : 1h 36mn
Bit rate mode               : Constant
Bit rate                    : 192 Kbps
Channel(s)                  : 2 channels
Channel positions           : Front: L R
Sampling rate               : 48.0 KHz
Bit depth                   : 16 bits
Compression mode            : Lossy
Stream size                 : 132 MiB (2%)
Title                       : DVO [Novyj] 2.0 192 kbps [Hurtom-imonko,dvorsky]
Language                    : Ukrainian
Default                     : Yes
Forced                      : No

Audio #2
ID                          : 3
Format                      :
Format/Info                 : Digital Theater Systems
Mode                        : 16
Format settings, Endianness : Big
Codec ID                    : A_DTS
Duration                    : 1h 36mn
Bit rate mode               : Constant
Bit rate                    : 768 Kbps
Channel(s)                  : 6 channels
Channel positions           : Front: L C R, Side: L R, LFE
Sampling rate               : 48.0 KHz
Bit depth                   : 16 bits
Compression mode            : Lossy
Stream size                 : 530 MiB (9%)
Title                       : Original 5.1 1510 kbps
Language                    : English
Default                     : No
Forced                      : No

Text
ID                          : 4
Format                      : UTF-8
Codec ID                    : S_TEXT/UTF8
Codec ID/Info               : UTF-8 Plain Text
Language                    : English
Default                     : No
Forced                      : No

Menu
00:00:00.000                : :00:00:00.000
00:01:37.291                : :00:01:37.291
00:08:11.291                : :00:08:11.291
00:17:05.583                : :00:17:05.583
00:24:42.500                : :00:24:42.500
00:33:00.833                : :00:33:00.833
00:41:50.500                : :00:41:50.500
00:51:08.375                : :00:51:08.375
00:59:23.125                : :00:59:23.125
01:06:54.125                : :01:06:54.125
01:18:52.458                : :01:18:52.458
01:31:19.541                : :01:31:19.541




Джерела та подяки: &
ріп відео, оригінальні звук та субтитри - CRiSC (HDbits), madoff (HDClub); українська доріжка - imonko - зведення, dvorsky - запис з ТБ; українізований постер - Skiff (всі - Гуртом).


ЗАЛИШАЙТЕСЬ ЯКОМОГА ДОВШЕ НА РОЗДАЧІ!

СКАЧАВ САМ - ДАЙ СКАЧАТИ ІНШИМ


Срібний реліз (на рейтинг впливає 50% завантаженого)
 Трекер:    Зареєстрований   

Завантажити / скачати фільм українською



відео для новачків



 Зареєстрований:   2014-12-03 19:13
 Розмір:   5.61 GB 
 Оцінка фільму:   4.1/10 (Голосів: 17)
   
Ваш часовий пояс: GMT + 2 Години

Нова тема   Відповісти