Завантажити та скачати торренти українською


Французький поцілунок / French kiss (1995) 720p 3xUkr/Eng | Sub Eng

Нові коментарі

Нова тема   Відповісти
Автор Повідомлення
Anonymous 







2014-12-03 01:30  
Французький поцілунок / French kiss (1995) 720p 3xUkr/Eng | Sub Eng



Оригінальний постер



Жанр: драма, мелодрама, комедія, романтичний
Країна: Велика Британія, США



Кінокомпанія: Polygram Filmed Entertainment, Prufrock Pictures, Twentieth Century Fox Film Corporation, Working Title Films
Режисер: Лоуренс Кездан / Lawrence Kasdan
Актори: Меґ Раян / Meg Ryan, Кевін Клайн / Kevin Kline, Тімоті Хаттон / Timothy Hutton, Жан Рено / Jean Reno, Франсуа Клюзе / François Cluzet, Сюзен Енбех / Suzan Anbeh, Рене Хамфрі / Renée Humphrey, Майкл Райлі / Michael Riley та інші

Сюжет:
У житті вразливої та емоційної Кейт (Меґ Раян) втілились два найбільші її страхи. Перший - у неї вкрали нареченого, а другий - для його порятунку потрібно летіти до Парижу на літаку, в той час як вона невимовно боїться літати. В літаку вона знайомиться з грубуватим та чарівним французом Люком (Кевін Клайн), який виявляється контрабандистом, що підкладає їй до сумочки коштовне кольє, аби уникнути труднощів на митниці. Сподіваючись непомітно забрати коштовну прикрасу в Парижі, він обіцяє навчити Кейт як повернути свого нареченого. Однак за іронією долі в неї викрадають все - гроші, паспорт, навіть контрабандне кольє. Тепер вони вимушені мимоволі продовжити знайомство, а Люку доведеться виконати свою обіцянку...


Рейтинг MPAA: PG-13 - дітям до 13 років перегляд не бажаний
Вікова категорія: 12+

Тривалість: 01:51:12
Якість: 720p [DON]
Відео:
кодек:
розмір кадру: 1280x544
бітрейт: 6812 Кбіт/с [crf=16]

Аудіо # 1:
мова: українська
переклад: багатоголосий закадровий
кодек: 2.0
бітрейт: 192 Кбіт/с

Аудіо # 2:
мова: українська
переклад: багатоголосий закадровий - Так Треба Продакшн
кодек: 2.0
бітрейт: 192 Кбіт/с
примітка: єдина з українських доріжок, де озвучено діалог під час титрів

Аудіо # 3:
мова: українська
переклад: двоголосий закадровий
кодек: 2.0
бітрейт: 192 Кбіт/с

Аудіо # 4:
мова: англійська
переклад: оригінал
кодек: 5.1
бітрейт: 1509 Кбіт/с

Субтитри:
мова: англійська
тип: програмні (м'які)
формат: *.srt

Збережено оригінальні розділи, як на Blu-ray.
MediaInfo
Код:
Complete name               : French Kiss (1995) [3xUkr,Eng sub.Eng] 720p [Hurtom].mkv
Format                      : Matroska
Format version              : Version 4 / Version 2
File size                   : 6.91 GiB
Duration                    : 1 h 51 min
Overall bit rate            : 8 901 kb/s
Movie name                  : Французький поцілунок / French kiss (1995) [3xUkr,Eng sub.Eng] 720p [Hurtom]
Writing library             : libebml v1.3.4 + libmatroska v1.4.5
Cover                       : Yes
Attachments                 : cover.jpg

Video
ID                          : 1
Format                      : AVC
Format/Info                 : Advanced Video Codec
Format profile              : [email protected]
Format settings, CABAC      : Yes
Format settings, ReFrames   : 12 frames
Codec ID                    : V_MPEG4/ISO/AVC
Duration                    : 1 h 51 min
Bit rate                    : 6 812 kb/s
Width                       : 1 280 pixels
Height                      : 544 pixels
Display aspect ratio        : 2.35:1
Frame rate mode             : Constant
Frame rate                  : 23.976 (24000/1001) FPS
Color space                 : YUV
Chroma subsampling          : 4:2:0
Bit depth                   : 8 bits
Scan type                   : Progressive
Bits/(Pixel*Frame)          : 0.408
Stream size                 : 5.29 GiB (77%)
Title                       : Французький поцілунок / French kiss (1995) 720p [DON]
Writing library             : core 129 r2230 1cffe9f
Encoding settings           : cabac=1 / ref=12 / deblock=1:-3:-3 / analyse=0x3:0x133 / me=umh / subme=10 / psy=1 / psy_rd=0.90:0.05 / mixed_ref=1 / me_range=32 / chroma_me=1 / trellis=2 / 8x8dct=1 / cqm=0 / deadzone=21,11 / fast_pskip=0 / chroma_qp_offset=-3 / threads=3 / lookahead_threads=1 / sliced_threads=0 / nr=0 / decimate=0 / interlaced=0 / bluray_compat=0 / constrained_intra=0 / bframes=6 / b_pyramid=2 / b_adapt=2 / b_bias=0 / direct=3 / weightb=1 / open_gop=0 / weightp=2 / keyint=250 / keyint_min=23 / scenecut=40 / intra_refresh=0 / rc_lookahead=60 / rc=crf / mbtree=1 / crf=16.0 / qcomp=0.70 / qpmin=0 / qpmax=69 / qpstep=4 / ip_ratio=1.40 / aq=1:0.90
Language                    : English
Default                     : Yes
Forced                      : No

Audio #1
ID                          : 2
Format                      : AC-3
Format/Info                 : Audio Coding 3
Mode extension              : CM (complete main)
Format settings, Endianness : Big
Codec ID                    : A_AC3
Duration                    : 1 h 51 min
Bit rate mode               : Constant
Bit rate                    : 192 kb/s
Channel(s)                  : 2 channels
Channel positions           : Front: L R
Sampling rate               : 48.0 kHz
Frame rate                  : 31.250 FPS (1536 spf)
Compression mode            : Lossy
Stream size                 : 153 MiB (2%)
Title                       : MVO [TET,1+1] 2.0 192 kbps [Hurtom-Arsenfpu,slavik_v_z]
Language                    : Ukrainian
Default                     : Yes
Forced                      : No

Audio #2
ID                          : 3
Format                      : AC-3
Format/Info                 : Audio Coding 3
Mode extension              : CM (complete main)
Format settings, Endianness : Big
Codec ID                    : A_AC3
Duration                    : 1 h 51 min
Bit rate mode               : Constant
Bit rate                    : 192 kb/s
Channel(s)                  : 2 channels
Channel positions           : Front: L R
Sampling rate               : 48.0 kHz
Frame rate                  : 31.250 FPS (1536 spf)
Compression mode            : Lossy
Stream size                 : 153 MiB (2%)
Title                       : MVO [TTP-Inter] 2.0 192 kbps [Hurtom-Lan]
Language                    : Ukrainian
Default                     : No
Forced                      : No

Audio #3
ID                          : 4
Format                      : AC-3
Format/Info                 : Audio Coding 3
Mode extension              : CM (complete main)
Format settings, Endianness : Big
Codec ID                    : A_AC3
Duration                    : 1 h 51 min
Bit rate mode               : Constant
Bit rate                    : 192 kb/s
Channel(s)                  : 2 channels
Channel positions           : Front: L R
Sampling rate               : 48.0 kHz
Frame rate                  : 31.250 FPS (1536 spf)
Compression mode            : Lossy
Stream size                 : 153 MiB (2%)
Title                       : DVO [Novyj] 2.0 192 kbps [Hurtom-Lan]
Language                    : Ukrainian
Default                     : No
Forced                      : No

Audio #4
ID                          : 5
Format                      :
Format/Info                 : Digital Theater Systems
Mode                        : 16
Format settings, Endianness : Big
Codec ID                    : A_DTS
Duration                    : 1 h 51 min
Bit rate mode               : Constant
Bit rate                    : 1 509 kb/s
Channel(s)                  : 6 channels
Channel positions           : Front: L C R, Side: L R, LFE
Sampling rate               : 48.0 kHz
Frame rate                  : 93.750 FPS (512 spf)
Bit depth                   : 24 bits
Compression mode            : Lossy
Stream size                 : 1.17 GiB (17%)
Title                       : Original, 5.1 1509 kbps
Language                    : English
Default                     : No
Forced                      : No

Text
ID                          : 6
Format                      : UTF-8
Codec ID                    : S_TEXT/UTF8
Codec ID/Info               : UTF-8 Plain Text
Duration                    : 1 h 50 min
Bit rate                    : 63 b/s
Count of elements           : 2112
Stream size                 : 51.6 KiB (0%)
Language                    : English
Default                     : No
Forced                      : No

Menu
00:00:00.000                : en:1. Main Titles
00:07:55.642                : en:2. Unexpected Call
00:10:00.266                : en:3. Toronto to Paris
00:15:53.411                : en:4. Drink and Tell
00:21:43.844                : en:5. Customs
00:24:15.704                : en:6. Foreign Relations
00:30:33.165                : en:7. After the Bags
00:35:13.153                : en:8. "Never Touch My Vine!"
00:39:37.500                : en:9. Apply Yourself
00:44:16.571                : en:10. Looking for Answers
00:50:25.147                : en:11. On the Right Track
00:56:33.432                : en:12. Lactose Intolerance
01:01:14.170                : en:13. A Lost Birthright
01:06:08.298                : en:14. Family Reunion
01:13:22.106                : en:15. Love Lessons
01:17:17.258                : en:16. Make Charlie Suffer
01:21:08.280                : en:17. Beach Attack
01:27:26.825                : en:18. Last Dance
01:34:28.162                : en:19. Realizing the Problem
01:38:29.278                : en:20. The Illusiion Is Complete
01:42:53.584                : en:21. True Love
01:44:41.942                : en:22. End Titles




Джерела та подяки: &
ріп відео, оригінальні звук та субтитри - DON (HDbits), madoff (HDClub); українські доріжки - 1) Arsenfpu - зведення, slavik_v_z - запис з ТБ; 2-3) Lan - зведення, karvai0 - запис з ТБ (2); українізований постер - thefir; фільмографії акторів та інформація про озвучення - Demetrios, Тирік(всі - Гуртом).


ЗАЛИШАЙТЕСЬ ЯКОМОГА ДОВШЕ НА РОЗДАЧІ!
СКАЧАВ САМ - ДАЙ СКАЧАТИ ІНШИМ


Срібний реліз (на рейтинг впливає 50% завантаженого)
 Трекер:    Зареєстрований   

Завантажити / скачати фільм українською



відео для новачків



 Зареєстрований:   2016-08-31 18:55
 Розмір:   6.91 GB 
 Оцінка фільму:   5.3/10 (Голосів: 19)
   
Anonymous 







2016-08-31 18:58  
Реліз оновлено!
Додано українське озвучення від ТЕТ/1+1

P.S. "золото" на тиждень для заохочення підтримки релізу.

casper101 
Свій


З нами з: 03.12.09
Востаннє: 08.12.16
Повідомлень: 93

2016-08-31 21:18  
тет і 1+1 це не одне й теж саме???
Anonymous 







2016-08-31 22:00  
casper101, в даному випадку це однакове озвучення, що транслювалось цими каналами.
Deiv 
Частий відвідувач


З нами з: 15.07.16
Востаннє: 08.12.16
Повідомлень: 28

2016-08-31 23:13  
А в 1080p чи варто чекати? Дуже прошу, фільм чудовий.
Anonymous 







2016-09-01 06:46  
Deiv, я не викладатиму 1080р, який важитиме 14-15 Гб. І цю 720ку до оновлення сідував лише я. Дивитись хочуть всі, лише сідувати немає кому.
Deiv 
Частий відвідувач


З нами з: 15.07.16
Востаннє: 08.12.16
Повідомлень: 28

2016-09-01 09:41  
Якщо діло в сідуваннях то не переживай я стану. Цей фільм я б хотів додати до своєї колекції в максимальній якості і саме в 1080p. Якщо ні, то прийдется йти на інші сайти. Прошу зроби, буду вельми вдячний.
Anonymous 







2016-09-01 10:08  
Deiv, добре, вже поставив вантажитись.
Anonymous 







2016-09-02 08:47  
Deiv, ось 1080p
Ваш часовий пояс: GMT + 2 Години

Нова тема   Відповісти