Завантажити та скачати торренти українською


Уцілілий / Врятований / Lone Survivor (2013) 720p 2xUkr/Eng | Sub Eng

Нові коментарі

Нова тема   Відповісти
Автор Повідомлення
Anonymous 







2014-12-02 16:32  
Уцілілий / Врятований / Lone Survivor (2013) 720p 2xUkr/Eng | Sub Eng



Жанр: екшн, біографічний, драма
Країна: США



Кінокомпанія: Emmett/Furla Films, Spikings Entertainment, Herrick Entertainment
Режисер: Пітер Берґ
Актори: Марк Волберґ, Тейлор Кітч, Еміль Гірш, Бен Фостер, Юсуф Азами, Алі Суліман, Ерік Бана, Олександр Людвіґ, Річ Тінґ, Ден Білзеріан

Сюжет:
Афганістан, 2005 рік. Команда американських спецназівців отримує завдання знешкодити відомого лідера талібів Ахмада Шаха. Потрапивши в пастку, солдати приймають нерівний кровопролитний бій, і всі вони гинуть героями. Всі, крім одного. Для вцілілого Маркуса Латтрела бій тільки починається: він за будь-яку ціну повинен вижити і пробратися до «своїх». Коли майже все втрачено, йому вирішується допомогти Ґулаб - мирна людина, що ненавидить війну.


Рейтинг MPAA: R - особам до 17 років обов'язкова присутність батьків або дорослого опікуна
Вікова категорія: 16+

Тривалість: 02:01:21
Якість: 720p (TayTO, NOR Transfer)
Відео:
кодек:
розмір кадру: 1280 x 534
бітрейт: 8217 кбіт/с [crf=13.4]

Аудіо # 1:
мова: українська
переклад: багатоголосий закадровий
кодек: 2.0
бітрейт: 192 кбіт/с Аудіо # 2:
мова: українська
переклад: багатоголосий закадровий - ААА-sound
кодек: 5.1
бітрейт: 1510 кбіт/с
Інформація про озвучення
Ролі озвучили: Дмитро Завадський, Андрій Федінчик, Андрій Альохін, Юрій Ребрик, Ярослав Чорненький, Олександр Єфімов та інші.
Фільм озвучено студією ААА-sound у 2014 році на замовлення Галеон Кіно.
Аудіо # 3:
мова: англійська
переклад: оригінал
кодек: 5.1
бітрейт: 1510 кб/с

Субтитри # 1-2:
мова: англійська (два варіанта)
тип: програмні (м'які)
формат: *.srt

Збережено оригінальні розділи, як на Blu-ray.
MediaInfo
Код:
General
Unique ID                   : 187748455255911909376015557729283603704 (0x8D3F0985DF55EBE68C02B0AC3F75FCF8)
Complete name               : Lone Survivor (2013) [2xUkr,Eng sub.Eng] 720p [Hurtom & HDClub].mkv
Format                      : Matroska
Format version              : Version 4 / Version 2
File size                   : 9.88 GiB
Duration                    : 2h 1mn
Overall bit rate            : 11.7 Mbps
Movie name                  : Уцілілий / Врятований / Lone Survivor (2013) [2xUkr,Eng sub.Eng] 720p [Hurtom & HDClub]
Encoded date                : UTC 2015-02-21 15:52:04
Writing application         : mkvmerge v7.6.0 ('Garden of Dreams') 64bit built on Feb  8 2015 13:04:34
Writing library             : libebml v1.3.1 + libmatroska v1.4.2
DURATION                    : 02:01:20.843000000
NUMBER_OF_FRAMES            : 682579
NUMBER_OF_BYTES             : 1374031527
_STATISTICS_WRITING_APP     : mkvmerge v7.6.0 ('Garden of Dreams') 64bit built on Feb  8 2015 13:04:34
_STATISTICS_WRITING_DATE_UT : 2015-02-21 15:52:04
_STATISTICS_TAGS            : BPS DURATION NUMBER_OF_FRAMES NUMBER_OF_BYTES

Video
ID                          : 1
Format                      : AVC
Format/Info                 : Advanced Video Codec
Format profile              : [email protected]
Format settings, CABAC      : Yes
Format settings, ReFrames   : 12 frames
Codec ID                    : V_MPEG4/ISO/AVC
Duration                    : 2h 1mn
Bit rate                    : 8 217 Kbps
Width                       : 1 280 pixels
Height                      : 534 pixels
Display aspect ratio        : 2.40:1
Frame rate mode             : Constant
Frame rate                  : 23.976 fps
Color space                 : YUV
Chroma subsampling          : 4:2:0
Bit depth                   : 8 bits
Scan type                   : Progressive
Bits/(Pixel*Frame)          : 0.501
Stream size                 : 6.96 GiB (70%)
Title                       : Уцілілий / Врятований / Lone Survivor / Уцелевший (2013) 720p [TayTO, Blu-ray NOR]
Writing library             : core 142 r2431+42 c69a006 tMod [[email protected] X86_64]
Encoding settings           : cabac=1 / ref=12 / deblock=1:-3:-3 / analyse=0x3:0x133 / me=umh / subme=11 / psy=1 / fade_compensate=0.00 / psy_rd=1.10:0.00 / mixed_ref=1 / me_range=32 / chroma_me=1 / trellis=2 / 8x8dct=1 / cqm=0 / deadzone=21,11 / fast_pskip=0 / chroma_qp_offset=-2 / threads=12 / lookahead_threads=3 / sliced_threads=0 / nr=0 / decimate=1 / interlaced=0 / bluray_compat=0 / constrained_intra=0 / fgo=0 / bframes=10 / b_pyramid=2 / b_adapt=2 / b_bias=0 / direct=3 / weightb=1 / open_gop=0 / weightp=2 / keyint=250 / keyint_min=23 / scenecut=40 / intra_refresh=0 / rc=crf / mbtree=0 / crf=13.4000 / qcomp=0.65 / qpmin=0:0:0 / qpmax=69:69:69 / qpstep=4 / ip_ratio=1.20 / pb_ratio=1.10 / aq=2:0.65 / aq-sensitivity=10.00 / aq-factor=1.00:1.00:1.00 / aq2=0 / aq3=0 / zones=32142,32311,crf=12.0/32382,32492,crf=12.0/32586,32685,crf=12.0/32843,33071,crf=12.0/33238,33421,crf=12.0/147376,147423,crf=12.0
Language                    : English
Default                     : Yes
Forced                      : No
Matrix coefficients         : BT.709
Color range                 : Limited
DURATION                    : 02:01:20.941000000
NUMBER_OF_FRAMES            : 174568
NUMBER_OF_BYTES             : 7686211827
_STATISTICS_WRITING_APP     : mkvmerge v7.6.0 ('Garden of Dreams') 64bit built on Feb  8 2015 13:04:34
_STATISTICS_WRITING_DATE_UT : 2015-02-21 15:52:04
_STATISTICS_TAGS            : BPS DURATION NUMBER_OF_FRAMES NUMBER_OF_BYTES

Audio #1
ID                          : 2
Format                      : AC-3
Format/Info                 : Audio Coding 3
Mode extension              : CM (complete main)
Format settings, Endianness : Big
Codec ID                    : A_AC3
Duration                    : 2h 1mn
Bit rate mode               : Constant
Bit rate                    : 192 Kbps
Channel(s)                  : 2 channels
Channel positions           : Front: L R
Sampling rate               : 48.0 KHz
Bit depth                   : 16 bits
Compression mode            : Lossy
Stream size                 : 167 MiB (2%)
Title                       : MVO [1+1] 2.0 192 kbps [Hurtom-Gelios]
Language                    : Ukrainian
Default                     : Yes
Forced                      : No

Audio #2
ID                          : 3
Format                      :
Format/Info                 : Digital Theater Systems
Mode                        : 16
Format settings, Endianness : Big
Codec ID                    : A_DTS
Duration                    : 2h 1mn
Bit rate mode               : Constant
Bit rate                    : 1 510 Kbps
Channel(s)                  : 6 channels
Channel positions           : Front: L C R, Side: L R, LFE
Sampling rate               : 48.0 KHz
Bit depth                   : 24 bits
Compression mode            : Lossy
Stream size                 : 1.28 GiB (13%)
Title                       : MVO [ААА-sound] 5.1 1510 kbps [Hurtom-Gelios]
Language                    : Ukrainian
Default                     : No
Forced                      : No

Audio #3
ID                          : 4
Format                      :
Format/Info                 : Digital Theater Systems
Mode                        : 16
Format settings, Endianness : Big
Codec ID                    : A_DTS
Duration                    : 2h 1mn
Bit rate mode               : Constant
Bit rate                    : 1 509 Kbps
Channel(s)                  : 6 channels
Channel positions           : Front: L C R, Side: L R, LFE
Sampling rate               : 48.0 KHz
Bit depth                   : 24 bits
Compression mode            : Lossy
Stream size                 : 1.28 GiB (13%)
Title                       : Original 5.1 1509 kbps
Language                    : English
Default                     : No
Forced                      : No

Text #1
ID                          : 5
Format                      : UTF-8
Codec ID                    : S_TEXT/UTF8
Codec ID/Info               : UTF-8 Plain Text
Title                       : Eng #1
Language                    : English
Default                     : No
Forced                      : No

Text #2
ID                          : 6
Format                      : UTF-8
Codec ID                    : S_TEXT/UTF8
Codec ID/Info               : UTF-8 Plain Text
Title                       : Eng #2
Language                    : English
Default                     : No
Forced                      : No

Menu
00:00:00.000                : en:00:00:00.000
00:05:59.192                : en:00:05:59.192
00:09:59.057                : en:00:09:59.057
00:17:18.371                : en:00:17:18.371
00:24:19.750                : en:00:24:19.750
00:33:20.499                : en:00:33:20.499
00:45:49.580                : en:00:45:49.580
00:53:06.934                : en:00:53:06.934
01:01:54.211                : en:01:01:54.211
01:09:18.780                : en:01:09:18.780
01:16:07.188                : en:01:16:07.188
01:22:24.481                : en:01:22:24.481
01:28:50.492                : en:01:28:50.492
01:36:46.426                : en:01:36:46.426
01:43:45.678                : en:01:43:45.678
01:52:13.227                : en:01:52:13.227




Джерела та подяки: &
ріп відео, оригінальні звук та субтитри - TayTO (HDbits), madoff (HDClub); українські доріжки - Gelios; xslim, MAKAPOHHIK, Sando7 - запис з ТБ (1); фільмографії акторів та інформація про озвучення - Віктор (всі - Гуртом).


ЗАЛИШАЙТЕСЬ ЯКОМОГА ДОВШЕ НА РОЗДАЧІ!

СКАЧАВ САМ - ДАЙ СКАЧАТИ ІНШИМ


 Трекер:    Зареєстрований   

Завантажити / скачати фільм українською



відео для новачків



 Зареєстрований:   2015-02-22 13:36
 Розмір:   9.88 GB 
 Оцінка фільму:   6.8/10 (Голосів: 29)
   
Anonymous 







2015-02-22 13:41  
Реліз оновлено!
Додав озвучку від ААА-sound

EduardGol 
Поважний учасник


З нами з: 03.10.13
Востаннє: 07.12.16
Повідомлень: 162

2016-05-07 06:40  
Мені фільм дуже сподобався. Тримає в напружені і геть не схожий на банальний бойовик.
Найбільш напружений момент для мене - це як вони спускались двічі вниз, коли відступали. Страшно дивитись на таке. Happy

YaWrangler 
Поважний учасник


З нами з: 29.07.12
Востаннє: 04.12.16
Повідомлень: 249

2016-06-04 20:13  
В сумі загалом (4 релізи) так мало народу скачало... 1500 всього десь
А фільм шедевральний. Один з найкращих фільмів про війну, які я бачив

Ваш часовий пояс: GMT + 2 Години

Нова тема   Відповісти