Завантажити та скачати торренти українською


Коко до Шанель / Coco avant Chanel / Coco Before Chanel (2009) 720p Ukr/Fra | Sub Eng

Нові коментарі

Нова тема   Відповісти
Автор Повідомлення
Anonymous 







2014-12-02 10:49  
Коко до Шанель / Coco avant Chanel / Coco Before Chanel (2009) 720p Ukr/Fra | Sub Eng



Альтернативні постери








Жанр: біографічний, драма
Країна: Франція, Бельгія



Кінокомпанія: Haut et Court, Ciné@, Warner Bros.
Режисер: Анн Фонтен / Anne Fontaine
Актори: Одрі Тоту / Audrey Tautou, Бенуа Пульворд / Benoît Poelvoorde, Алессандро Нівола / Alessandro Nivola, Марi Жиллен / Marie Gillain, Eммануeль Дево / Emmanuelle Devos, Режіс Руає / Régis Royer, Етьен Бартоломью / Etienne Bartholomeus, Ян Дюффа / Yan Duffas, Фабєн Беар / Fabien Béhar, Рош Лейбовічи / Roch Leibovici

Сюжет:
«Коко до Шанель» - екранізована біографія, що розповідає про легендарну особистість дизайнерки Коко Шанель. Сюжет сфокусований на часі, коли вона ще не була знаменитою законодавицею мод, що вдягла на жінку чоловічий костюм та маленьке чорне плаття, і звалася Габріелла Шанель.


Рейтинг MPAA: PG-13 - дітям до 13 років перегляд не бажаний
Вікова категорія: 12+

Тривалість: 01:50:11
Якість: 720p
Відео:
кодек:
розмір кадру: 1280x544
бітрейт: 4171 кбіт/с

Аудіо # 1:
мова: українська
переклад: професійний дубльований
кодек: 2.0
бітрейт: 192 кбіт/с
Інформація про дубляж
Ролі дублювали: Одрі Тоту/Ґабріелла Коко Шанель — Юлія Перенчук, Михайло Тишин, Катерина Брайковська, Ольга Радчук, Андрій Федінчик, Бенуа Пульворд/Етьєн Бальзан — Дмитро Завадський, Людмила Ардельян та інші
Аудіо # 2:
мова: французька
переклад: оригінал
кодек: 5.1
бітрейт: 1510 кбіт/с

Субтитри:
мова: англійська
тип: програмні (м'які)
формат: *.srt
MediaInfo
Код:
General
Unique ID                   : 238384347441272517717930001581211731277 (0xB35727C1CF05939FB84F3F14A4E1454D)
Complete name               : Coco avant Chanel (2009) [Ukr,Fra sub.Eng] 720p [Hurtom & HDClub].mkv
Format                      : Matroska
Format version              : Version 4 / Version 2
File size                   : 4.52 GiB
Duration                    : 1h 50mn
Overall bit rate            : 5 875 Kbps
Movie name                  : Коко до Шанель / Coco avant Chanel / Coco Before Chanel (2009) 720p [Hurtom & HDClub]
Encoded date                : UTC 2014-12-02 07:20:16
Writing application         : mkvmerge v7.3.0 ('Nouages') 64bit built on Oct 22 2014 18:53:34
Writing library             : libebml v1.3.0 + libmatroska v1.4.1
DURATION                    : 01:50:11.392000000
NUMBER_OF_FRAMES            : 206606
NUMBER_OF_BYTES             : 158673408
_STATISTICS_WRITING_APP     : mkvmerge v7.3.0 ('Nouages') 64bit built on Oct 22 2014 18:53:34
_STATISTICS_WRITING_DATE_UT : 2014-12-02 07:20:16
_STATISTICS_TAGS            : BPS DURATION NUMBER_OF_FRAMES NUMBER_OF_BYTES

Video
ID                          : 1
Format                      : AVC
Format/Info                 : Advanced Video Codec
Format profile              : [email protected]
Format settings, CABAC      : Yes
Format settings, ReFrames   : 9 frames
Codec ID                    : V_MPEG4/ISO/AVC
Duration                    : 1h 50mn
Bit rate                    : 4 171 Kbps
Width                       : 1 280 pixels
Height                      : 544 pixels
Display aspect ratio        : 2.35:1
Frame rate mode             : Constant
Frame rate                  : 23.976 fps
Color space                 : YUV
Chroma subsampling          : 4:2:0
Bit depth                   : 8 bits
Scan type                   : Progressive
Bits/(Pixel*Frame)          : 0.250
Stream size                 : 3.12 GiB (69%)
Title                       : Коко до Шанель / Coco avant Chanel / Coco Before Chanel (2009) 720p [HDClub]
Writing library             : core 80 r1373M 4322f63
Encoding settings           : cabac=1 / ref=9 / deblock=1:-1:-2 / analyse=0x3:0x113 / me=umh / subme=9 / psy=1 / psy_rd=1.0:0.0 / mixed_ref=1 / me_range=32 / chroma_me=1 / trellis=2 / 8x8dct=1 / cqm=0 / deadzone=21,11 / fast_pskip=0 / chroma_qp_offset=-2 / threads=12 / sliced_threads=0 / nr=0 / decimate=0 / mbaff=0 / constrained_intra=0 / bframes=6 / b_pyramid=2 / b_adapt=2 / b_bias=0 / direct=3 / wpredb=1 / wpredp=2 / keyint=240 / keyint_min=24 / scenecut=40 / rc_lookahead=80 / rc=2pass / mbtree=1 / bitrate=4171 / ratetol=1.0 / qcomp=0.60 / qpmin=10 / qpmax=51 / qpstep=4 / cplxblur=20.0 / qblur=0.5 / ip_ratio=1.40 / aq=1:0.80
Language                    : English
Default                     : Yes
Forced                      : No
DURATION                    : 01:50:11.407000000
NUMBER_OF_FRAMES            : 158515
NUMBER_OF_BYTES             : 3446856727
_STATISTICS_WRITING_APP     : mkvmerge v7.3.0 ('Nouages') 64bit built on Oct 22 2014 18:53:34
_STATISTICS_WRITING_DATE_UT : 2014-12-02 07:20:16
_STATISTICS_TAGS            : BPS DURATION NUMBER_OF_FRAMES NUMBER_OF_BYTES

Audio #1
ID                          : 2
Format                      : AC-3
Format/Info                 : Audio Coding 3
Mode extension              : CM (complete main)
Format settings, Endianness : Big
Codec ID                    : A_AC3
Duration                    : 1h 50mn
Bit rate mode               : Constant
Bit rate                    : 192 Kbps
Channel(s)                  : 2 channels
Channel positions           : Front: L R
Sampling rate               : 48.0 KHz
Bit depth                   : 16 bits
Compression mode            : Lossy
Stream size                 : 151 MiB (3%)
Title                       : Dub [1+1] 2.0 192 kbps [Hurtom-karvai0]
Language                    : Ukrainian
Default                     : Yes
Forced                      : No

Audio #2
ID                          : 3
Format                      :
Format/Info                 : Digital Theater Systems
Mode                        : 16
Format settings, Endianness : Big
Codec ID                    : A_DTS
Duration                    : 1h 50mn
Bit rate mode               : Constant
Bit rate                    : 1 510 Kbps
Channel(s)                  : 6 channels
Channel positions           : Front: L C R, Side: L R, LFE
Sampling rate               : 48.0 KHz
Bit depth                   : 24 bits
Compression mode            : Lossy
Stream size                 : 1.16 GiB (26%)
Title                       : Original 5.1 1510 kbps
Language                    : French
Default                     : No
Forced                      : No

Text
ID                          : 4
Format                      : UTF-8
Codec ID                    : S_TEXT/UTF8
Codec ID/Info               : UTF-8 Plain Text
Language                    : English
Default                     : No
Forced                      : No




Джерела та подяки: &
ріп відео, оригінальні звук та субтитри - Dreamcatcher (HDClub); українська доріжка - karvai0 - зведення, xslim - запис з ТБ; українізовані постери - Тирік; фільмографії акторів та інформація про озвучення - Віктор (всі - Гуртом).


ЗАЛИШАЙТЕСЬ ЯКОМОГА ДОВШЕ НА РОЗДАЧІ!

СКАЧАВ САМ - ДАЙ СКАЧАТИ ІНШИМ


 Трекер:    Зареєстрований   

Завантажити / скачати фільм українською



відео для новачків



 Зареєстрований:   2014-12-02 10:49
 Розмір:   4.52 GB 
 Оцінка фільму:   4.6/10 (Голосів: 17)
   
Інші релізи
Ваш часовий пояс: GMT + 2 Години

Нова тема   Відповісти