Завантажити та скачати торренти українською


Esthetic Education - Special Edition (single) (2007) [FLAC] | Rock

Нові коментарі

Нова тема   Відповісти
Останній раз роздавалося Myfordownloads (2016-10-09)
Автор Повідомлення
gosha.samovar 
VIP


З нами з: 08.09.10
Востаннє: 06.12.16
Повідомлень: 400

2014-11-30 14:32  
Esthetic Education - Special Edition (single) (2007) [FLAC] | Rock

Esthetic Education - Special Edition (single) (2007) [FLAC] | Rock


Стиль: Alternative Rock
Країна, місто: Україна, Київ
Видавець: Esthetic Education
Виконавці:
Ілля Галушко - гітара
Луї Франк — вокал
Дмитро Шуров — клавішні
Юрій Хусточка — бас-гітара
Анатолій Шмаргун - ударні
Пісні:
    01. Vasil Vasiltsiv
    02. In bed with you
    03. LaLaLa
    04. Vasil Vasiltsiv Force Minor FS RMS

    Відео бонус: Vasil Vasiltsiv
EAC log
Exact Audio Copy V1.0 beta 3 from 29. August 2011

Отчёт EAC об извлечении, выполненном 10. апреля 2013, 13:18

Esthetic Education / Special Edition

Дисковод: HL-DT-STDVD-RAM GSA-H58N Adapter: 0 ID: 0

Режим чтения : Достоверность
Использование точного потока : Да
Отключение кэша аудио : Да
Использование указателей C2 : Нет

Коррекция смещения при чтении : 102
Способность читать области Lead-in и Lead-out : Нет
Заполнение пропущенных сэмплов тишиной : Да
Удаление блоков с тишиной в начале и конце : Нет
При вычислениях CRC использовались нулевые сэмплы : Да
Интерфейс : Встроенный Win32-интерфейс для Win NT/2000

Выходной формат : Пользовательский кодировщик
Выбранный битрейт : 1024 kBit/s
Качество : Высокий
Добавление ID3-тега : Нет
Утилита сжатия : D:\soft_2\EAC\Exact Audio Copy\Flac\flac.exe
Дополнительные параметры : -V -8 -T "Date=%year%" -T "Genre=%genre%" %source%

TOC извлечённого CD

Трек | Старт | Длительность | Начальный сектор | Конечный сектор
---------------------------------------------------------------------
1 | 0:00.00 | 4:13.63 | 0 | 19037
2 | 4:13.63 | 4:23.67 | 19038 | 38829
3 | 8:37.55 | 4:08.36 | 38830 | 57465
4 | 12:46.16 | 4:53.53 | 57466 | 79493
5 | 20:11.69 | 7:19.42 | 90894 | 123860

Характеристики диапазона извлечения и сообщения об ошибках

Выбранный диапазон

Имя файла E:\Музіка!\from EAC\Esthetic Education - Special Edition (single)\Esthetic Education - Special Edition.wav

Пиковый уровень 99.4 %
Скорость извлечения 2.0 X
Качество диапазона 99.9 %
CRC теста A83FBD99
CRC копии A83FBD99
Копирование... OK

Ошибок не произошло

AccurateRip: сводка

Трек 1 отсутствует в базе данных
Трек 2 отсутствует в базе данных
Трек 3 отсутствует в базе данных
Трек 4 отсутствует в базе данных

Ни одного трека нет в базе AccurateRip

Конец отчёта

==== Контрольная сумма отчёта 5AE6EAD588625CA6F5CD0D4419A5878802700208B3C48FC3357D850204798A4E ====
Спектр
Технічні характеристики відео
Тривалість:00:04:10
кодек: DivX 5
розмір кадру:640x512 (AR 5:4)
бітрейт:2007 kbps

Аудіо:
мова: англійська
кодек: MPEG
бітрейт:128 kbps
Скріншоти:










Тривалість: 00:17:40
Мова: англійська
Аудіо-кодек: FLAC
Бітрейт: 947 кб/с
Джерело: Власний диск


Срібний реліз (на рейтинг впливає 50% завантаженого)
 Трекер:    Зареєстрований   

Завантажити / скачати українську музику



відео для новачків



 Зареєстрований:   2014-11-30 14:32
 Розмір:   195 MB 
 Оцінка музики:   8.2/10 (Голосів: 9)
   
Ваш часовий пояс: GMT + 2 Години

Нова тема   Відповісти