Завантажити та скачати торренти українською


Татусі (The ComDads) / Les compères (1983) 720p 2xUkr/Fra | Sub Eng

Нові коментарі

Нова тема   Відповісти
Автор Повідомлення
Anonymous 







2014-11-29 16:10  
Татусі / Les compères / The ComDads (1983) 720p 2xUkr/Fra | Sub Eng



Альтернативний постер


Жанр: комедія, кримінальний
Країна: Франція



Кінокомпанія: DD Productions, EFVE, Fideline Films
Режисер: Франсіс Вебер / Francis Veber
Актори: П’єр Рішар / Pierre Richard, Жерар Депард’є / Gerard Depardieu, Анні Дюпре / Anny Duperey, Мішель Омонт / Michel Aumont, Стефан Бьєррі / Stéphane Bierry, Жан-Жак Шаффе / Jean-Jacques Scheffer, Філіп Хорсанд / Philippe Khorsand, Ролан Бланш / Roland Blanche, Жак Франц / Jacques Frantz

Сюжет:
У Христини Мартен була дуже бурхлива молодість. Коли з дому втікає її сімнадцятирічний син Трістан, на його пошуки кидаються відразу двоє імовірних батьків. Повернути підлітка до батьківського дому намагаються вчитель Франсуа Піньон та журналіст Жан Люка.

Але, як з'ясувалося, сам Трістан не готовий до подвійної порції батьківської опіки. Він всіляко намагається позбутися погоні. Непокірного підлітка все ж таки доправляють до Крістіни, під конвоєм відразу двох татусів. Але в цей момент з'ясовується, що справжнім батьком Трістана є Поль - ще одне захоплення легковажної мадемуазель Мартен.


Рейтинг MPAA: PG - рекомендується присутність батьків
Вікова категорія: 12+

Тривалість: 01:30:59
Якість: 720p
Відео:
кодек:
розмір кадру: 1202x720
бітрейт: 15000 кбіт/с

Аудіо # 1:
мова: українська
переклад: двоголосий закадровий
ролі озвучили: Дмитро Завадський та Юлія Перенчук
кодек: 2.0
бітрейт: 384 кбіт/с

Аудіо # 2:
мова: українська
переклад: двоголосий закадровий
ролі озвучили: Дмитро Завадський та Людмила Ардельян
кодек: 2.0
бітрейт: 384 кбіт/с

Аудіо # 3:
мова: французька
переклад: оригінал
кодек: 2.0
бітрейт: 768 кбіт/с

Субтитри:
мова: англійська
тип: програмні (м'які)
формат: *.srt

Збережено оригінальні розділи, як на Blu-ray.
MediaInfo
Код:
General
Unique ID                   : 207107526519451549476414067493760349809 (0x9BCF756D924E5B3FA152F41D3CAF3671)
Complete name               : Les compères (1983) [2xUkr,Fra sub.Eng] 720p [Hurtom & HDClub].mkv
Format                      : Matroska
Format version              : Version 4 / Version 2
File size                   : 10.5 GiB
Duration                    : 1h 30mn
Overall bit rate            : 16.5 Mbps
Movie name                  : Татусі / Les compères / The ComDads (1983) 720p [Hurtom & HDClub]
Encoded date                : UTC 2014-11-29 13:42:59
Writing application         : mkvmerge v7.3.0 ('Nouages') 64bit built on Oct 22 2014 18:53:34
Writing library             : libebml v1.3.0 + libmatroska v1.4.1
DURATION                    : 01:27:53.833000000
NUMBER_OF_FRAMES            : 1097
NUMBER_OF_BYTES             : 30088
_STATISTICS_WRITING_APP     : mkvmerge v7.3.0 ('Nouages') 64bit built on Oct 22 2014 18:53:34
_STATISTICS_WRITING_DATE_UT : 2014-11-29 13:42:59
_STATISTICS_TAGS            : BPS DURATION NUMBER_OF_FRAMES NUMBER_OF_BYTES

Video
ID                          : 1
Format                      : AVC
Format/Info                 : Advanced Video Codec
Format profile              : [email protected]
Format settings, CABAC      : Yes
Format settings, ReFrames   : 9 frames
Codec ID                    : V_MPEG4/ISO/AVC
Duration                    : 1h 30mn
Bit rate                    : 15.0 Mbps
Width                       : 1 202 pixels
Height                      : 720 pixels
Display aspect ratio        : 1.669
Frame rate mode             : Constant
Frame rate                  : 24.000 fps
Color space                 : YUV
Chroma subsampling          : 4:2:0
Bit depth                   : 8 bits
Scan type                   : Progressive
Bits/(Pixel*Frame)          : 0.722
Stream size                 : 9.32 GiB (89%)
Title                       : Татусі / Les compères / The ComDads / Папаши (1983) 720p [HDCLUB-neofilm]
Writing library             : core 142 r2491 24e4fed
Encoding settings           : cabac=1 / ref=9 / deblock=1:-3:-3 / analyse=0x3:0x113 / me=umh / subme=11 / psy=1 / psy_rd=1.01:0.06 / mixed_ref=1 / me_range=32 / chroma_me=1 / trellis=2 / 8x8dct=1 / cqm=0 / deadzone=21,11 / fast_pskip=0 / chroma_qp_offset=-3 / threads=12 / lookahead_threads=2 / sliced_threads=0 / nr=0 / decimate=0 / interlaced=0 / bluray_compat=0 / constrained_intra=0 / bframes=9 / b_pyramid=2 / b_adapt=2 / b_bias=0 / direct=3 / weightb=1 / open_gop=0 / weightp=2 / keyint=240 / keyint_min=24 / scenecut=40 / intra_refresh=0 / rc_lookahead=50 / rc=2pass / mbtree=0 / bitrate=15000 / ratetol=1.0 / qcomp=0.60 / qpmin=0 / qpmax=69 / qpstep=4 / cplxblur=20.0 / qblur=0.5 / vbv_maxrate=50000 / vbv_bufsize=62500 / nal_hrd=none / filler=0 / ip_ratio=1.40 / pb_ratio=1.30 / aq=1:1.00
Language                    : English
Default                     : No
Forced                      : No

Audio #1
ID                          : 2
Format                      : AC-3
Format/Info                 : Audio Coding 3
Mode extension              : CM (complete main)
Format settings, Endianness : Big
Codec ID                    : A_AC3
Duration                    : 1h 30mn
Bit rate mode               : Constant
Bit rate                    : 384 Kbps
Channel(s)                  : 2 channels
Channel positions           : Front: L R
Sampling rate               : 48.0 KHz
Bit depth                   : 16 bits
Compression mode            : Lossy
Stream size                 : 250 MiB (2%)
Title                       : DVO [1+1] 2.0 384 kbps [Hurtom-rooster]
Language                    : Ukrainian
Default                     : Yes
Forced                      : No

Audio #2
ID                          : 3
Format                      : AC-3
Format/Info                 : Audio Coding 3
Mode extension              : CM (complete main)
Format settings, Endianness : Big
Codec ID                    : A_AC3
Duration                    : 1h 30mn
Bit rate mode               : Constant
Bit rate                    : 384 Kbps
Channel(s)                  : 2 channels
Channel positions           : Front: L R
Sampling rate               : 48.0 KHz
Bit depth                   : 16 bits
Compression mode            : Lossy
Stream size                 : 250 MiB (2%)
Title                       : DVO [STB] 2.0 384 kbps [Hurtom-rooster]
Language                    : Ukrainian
Default                     : No
Forced                      : No

Audio #3
ID                          : 4
Format                      :
Format/Info                 : Digital Theater Systems
Mode                        : 16
Format settings, Endianness : Big
Codec ID                    : A_DTS
Duration                    : 1h 30mn
Bit rate mode               : Constant
Bit rate                    : 768 Kbps
Channel(s)                  : 2 channels
Channel positions           : Front: L R
Sampling rate               : 48.0 KHz
Bit depth                   : 16 bits
Compression mode            : Lossy
Stream size                 : 500 MiB (5%)
Title                       : Original 2.0 768 kbps
Language                    : French
Default                     : No
Forced                      : No

Text
ID                          : 5
Format                      : UTF-8
Codec ID                    : S_TEXT/UTF8
Codec ID/Info               : UTF-8 Plain Text
Language                    : English
Default                     : No
Forced                      : No
DURATION                    : 01:30:59.776000000
NUMBER_OF_FRAMES            : 170618
NUMBER_OF_BYTES             : 262069248
_STATISTICS_WRITING_APP     : mkvmerge v7.3.0 ('Nouages') 64bit built on Oct 22 2014 18:53:34
_STATISTICS_WRITING_DATE_UT : 2014-11-29 13:42:59
_STATISTICS_TAGS            : BPS DURATION NUMBER_OF_FRAMES NUMBER_OF_BYTES

Menu
00:00:00.000                : en:Chapter 01
00:07:56.083                : en:Chapter 02
00:15:17.708                : en:Chapter 03
00:22:53.166                : en:Chapter 04
00:30:17.000                : en:Chapter 05
00:37:16.166                : en:Chapter 06
00:43:53.208                : en:Chapter 07
00:52:29.750                : en:Chapter 08
00:59:25.916                : en:Chapter 09
01:07:02.583                : en:Chapter 10
01:14:58.875                : en:Chapter 11
01:23:41.458                : en:Chapter 12




Джерела та подяки: &
ріп відео, звук та субтитри - neofilm (HDClub); джерело українських доріжок - rooster, _Slavik_, robotron005; українізовані постери - rooster, Тирік; фільмографії акторів та інформація про озвучення - Віктор (всі - Гуртом).


ЗАЛИШАЙТЕСЬ ЯКОМОГА ДОВШЕ НА РОЗДАЧІ!

СКАЧАВ САМ - ДАЙ СКАЧАТИ ІНШИМ


Срібний реліз (на рейтинг впливає 50% завантаженого)
 Трекер:    Зареєстрований   

Завантажити / скачати фільм українською



відео для новачків



 Зареєстрований:   2014-11-29 16:10
 Розмір:   10.51 GB 
 Оцінка фільму:   4.1/10 (Голосів: 17)
   
Інші релізи
   Татусі / Les compères (1983) 2xUkr/Fra yuranako  3 / 1   1.57 GB   2014-11-29 17:59 
   Татусі / Les compères (1983) 2xUkr/Fra rooster  4 / 0   2.18 GB   2011-03-29 19:40 
Ваш часовий пояс: GMT + 2 Години

Нова тема   Відповісти