Завантажити та скачати торренти українською


Право на вбивство / Righteous Kill (2008) 1080p Ukr/Eng | Sub Eng

Нові коментарі

Нова тема   Відповісти
Автор Повідомлення
Anonymous 







2014-11-29 02:15  
Право на вбивство / Righteous Kill (2008) 1080p Ukr/Eng | Sub Eng



Оригінальний постер



Жанр: бойовик, трилер, драма, кримінальний, детектив
Країна: США



Кінокомпанія: Millennium Films, Emmett/Furla Films, Grosvenor Park Media, Righteous Productions, Brooklyn Films, InVenture Entertainment, Nu Image Films, Open Pictures
Режисер: Джон Евнет / Jon Avnet
Актори: Роберт Де Ніро / Robert De Niro, Аль Пачіно / Al Pacino, Фіфті Сент / 50 Cent, Карла Гуджино / Carla Gugino, Джон Легуізамо / John Leguizamo, Донні Волберг / Donnie Wahlberg, Брайан Деннехі / Brian Dennehy, Трілбі Гловер / Trilby Glover, Алан Розенберг / Alan Rosenberg та інші

Сюжет:
Невловимий вбивця-месник за допомогою пістолета вершить своє правосуддя над злочинцями, що зуміли вислизнути з лап закону. Детективи-напарники Девід Фіск і Томас Кований беруться за цю заплутану справу. Проте несподіваний хід кілера плутає всі карти, і друзі виявляються під підозрою у колег. Тепер їм потрібно за будь-яку ціну знайти справжнього «стрільця», щоб зняти з себе звинувачення у серійних вбивствах.


Рейтинг MPAA: R - особам до 17 років обов'язкова присутність батьків або дорослого опікуна
Вікова категорія: 16+

Тривалість: 01:40:48
Якість: 1080p [SbR]
Відео:
кодек:
розмір кадру: 1920x816
бітрейт: 16703 кбіт/с [crf=19]

Аудіо # 1:
мова: українська
переклад: професійний дубльований
кодек: 2.0
бітрейт: 192 кбіт/с

Аудіо # 2:
мова: англійська
переклад: оригінал
кодек: 5.1
бітрейт: 1509 кбіт/с

Аудіо # 3:
мова: англійська
переклад: коментарі
кодек: OGG 2.0
бітрейт: 80 кбіт/с

Субтитри:
мова: англійська
тип: програмні (м'які)
формат: *.srt

Збережено оригінальні розділи, як на Blu-ray.
MediaInfo та log
Код:
General
Unique ID                   : 248879516447813977837251519743794259817 (0xBB3C738A2D0417B19B8D1169266EA769)
Complete name               : Righteous Kill (2008) [Ukr,Eng sub.Eng] 1080p [Hurtom & HDClub].mkv
Format                      : Matroska
Format version              : Version 4 / Version 2
File size                   : 13.1 GiB
Duration                    : 1h 40mn
Overall bit rate            : 18.6 Mbps
Movie name                  : Право на вбивство / Righteous Kill (2008) 1080p [Hurtom & HDClub]
Encoded date                : UTC 2014-11-28 23:53:57
Writing application         : mkvmerge v7.3.0 ('Nouages') 64bit built on Oct 22 2014 18:53:34
Writing library             : libebml v1.3.0 + libmatroska v1.4.1
DURATION                    : 01:34:25.050000000
NUMBER_OF_FRAMES            : 1622
NUMBER_OF_BYTES             : 58587
_STATISTICS_WRITING_APP     : mkvmerge v7.3.0 ('Nouages') 64bit built on Oct 22 2014 18:53:34
_STATISTICS_WRITING_DATE_UT : 2014-11-28 23:53:57
_STATISTICS_TAGS            : BPS DURATION NUMBER_OF_FRAMES NUMBER_OF_BYTES

Video
ID                          : 1
Format                      : AVC
Format/Info                 : Advanced Video Codec
Format profile              : [email protected]
Format settings, CABAC      : Yes
Format settings, ReFrames   : 5 frames
Codec ID                    : V_MPEG4/ISO/AVC
Duration                    : 1h 40mn
Bit rate                    : 16.3 Mbps
Width                       : 1 920 pixels
Height                      : 816 pixels
Display aspect ratio        : 2.35:1
Frame rate mode             : Constant
Frame rate                  : 23.976 fps
Color space                 : YUV
Chroma subsampling          : 4:2:0
Bit depth                   : 8 bits
Scan type                   : Progressive
Bits/(Pixel*Frame)          : 0.435
Stream size                 : 11.5 GiB (88%)
Title                       : Право на вбивство / Righteous Kill / Право на убийство (2008) 1080p [SbR]
Writing library             : core 142 r2431+42 c69a006 tMod [[email protected]:2:0 X86_64]
Encoding settings           : cabac=1 / ref=5 / deblock=1:-2:-2 / analyse=0x3:0x133 / me=umh / subme=11 / psy=1 / fade_compensate=0.00 / psy_rd=1.00:0.00 / mixed_ref=1 / me_range=32 / chroma_me=1 / trellis=2 / 8x8dct=1 / cqm=0 / deadzone=21,11 / fast_pskip=1 / chroma_qp_offset=-2 / threads=12 / lookahead_threads=2 / sliced_threads=0 / nr=0 / decimate=1 / interlaced=0 / bluray_compat=0 / constrained_intra=0 / fgo=0 / bframes=9 / b_pyramid=2 / b_adapt=2 / b_bias=0 / direct=1 / weightb=1 / open_gop=0 / weightp=2 / keyint=250 / keyint_min=23 / scenecut=40 / intra_refresh=0 / rc_lookahead=60 / rc=crf / mbtree=0 / crf=19.0000 / qcomp=0.70 / qpmin=0:0:0 / qpmax=69:69:69 / qpstep=4 / vbv_maxrate=62500 / vbv_bufsize=78125 / crf_max=0.0 / nal_hrd=none / filler=0 / ip_ratio=1.40 / pb_ratio=1.30 / aq=4:0.70 / aq-sensitivity=11.00 / aq-factor=1.00:1.00:1.00 / aq2=1:0.60 / aq2-sensitivity=9.00 / aq2-factor=1.00:1.00:1.00 / aq3=1:[0.60:0.60]:[0.60:0.60]:[0.60:0.60]:[0.60:0.60] / aq3-sensitivity=10.00 / aq3-factor=[1.00:1.00]:[1.00:1.00]:[1.00:1.00] / aq3-boundary=192:64:24
Language                    : English
Default                     : Yes
Forced                      : No
Color primaries             : BT.709
Transfer characteristics    : BT.709
Matrix coefficients         : BT.709
Color range                 : Limited

Audio #1
ID                          : 2
Format                      : AC-3
Format/Info                 : Audio Coding 3
Mode extension              : CM (complete main)
Format settings, Endianness : Big
Codec ID                    : A_AC3
Duration                    : 1h 40mn
Bit rate mode               : Constant
Bit rate                    : 192 Kbps
Channel(s)                  : 2 channels
Channel positions           : Front: L R
Sampling rate               : 48.0 KHz
Bit depth                   : 16 bits
Compression mode            : Lossy
Stream size                 : 138 MiB (1%)
Title                       : Dub [1+1] 2.0 192 kbps [Hurtom-JACKUS,olgaya]
Language                    : Ukrainian
Default                     : Yes
Forced                      : No

Audio #2
ID                          : 3
Format                      :
Format/Info                 : Digital Theater Systems
Mode                        : 16
Format settings, Endianness : Big
Codec ID                    : A_DTS
Duration                    : 1h 40mn
Bit rate mode               : Constant
Bit rate                    : 1 509 Kbps
Channel(s)                  : 6 channels
Channel positions           : Front: L C R, Side: L R, LFE
Sampling rate               : 48.0 KHz
Bit depth                   : 24 bits
Compression mode            : Lossy
Stream size                 : 1.06 GiB (8%)
Title                       : Original 5.1 1510 Kbps
Language                    : English
Default                     : No
Forced                      : No

Audio #3
ID                          : 4
Format                      : AC-3
Format/Info                 : Audio Coding 3
Mode extension              : CM (complete main)
Format settings, Endianness : Big
Codec ID                    : A_AC3
Duration                    : 1h 40mn
Bit rate mode               : Constant
Bit rate                    : 192 Kbps
Channel(s)                  : 2 channels
Channel positions           : Front: L R
Sampling rate               : 48.0 KHz
Bit depth                   : 16 bits
Compression mode            : Lossy
Stream size                 : 138 MiB (1%)
Title                       : Commentary
Language                    : English
Default                     : No
Forced                      : No

Text
ID                          : 5
Format                      : UTF-8
Codec ID                    : S_TEXT/UTF8
Codec ID/Info               : UTF-8 Plain Text
Language                    : English
Default                     : No
Forced                      : No

Menu
00:00:00.000                : en:Main Titles
00:03:26.664                : en:Unacceptable Acquittal
00:10:06.606                : en:Club 404 of Harlem
00:13:53.833                : en:Skateboard Pimp
00:22:17.586                : en:Not Your Average Rat
00:26:28.211                : en:"Everybody Respects the Gun"
00:29:52.415                : en:The Infield Fly Rule
00:34:42.497                : en:In Cold Blood
00:39:51.430                : en:Psychology of the Shield
00:45:14.712                : en:Martin Baum
00:48:22.858                : en:So Many Altar Boys
00:55:15.228                : en:The One Percent
00:59:41.703                : en:"Who I Was and Where I Stood"
01:05:12.491                : en:Suspicions
01:08:48.541                : en:Yevgeny Mugalat
01:14:00.269                : en:The Unforgivable
01:20:01.129                : en:Searching for Answers
01:26:57.170                : en:A Loss of Faith
01:34:06.182                : en:A Brother in Arms
01:36:00.129                : en:End Credits


Код:
[info]: 1920x816p 1:1 @ 24000/1001 fps (cfr)
[info]: color matrix: bt709
[info]: using SAR=1/1
[info]: using cpu capabilities: MMX2 SSE2Fast SSSE3 SSE4.2 AVX
[info]: profile High, level 4.1
[info]: started at Fri Jun 27 23:58:24 2014
[info]: frame I:1236  Avg QP:16.72  size:270932
[info]: frame P:27697 Avg QP:17.86  size:143422
[info]: frame B:116075 Avg QP:19.94  size: 71685
[info]: consecutive B-frames:  1.6%  1.2%  3.2% 18.6% 15.8% 30.5% 11.4% 14.0%  3.0%  0.8%
[info]: mb I  I16..4:  8.9% 69.3% 21.8%
[info]: mb P  I16..4:  1.2% 27.8%  2.2%  P16..4: 19.8% 25.6% 10.5%  2.1%  0.1%    skip:10.7%
[info]: mb B  I16..4:  0.1%  3.9%  0.3%  B16..8: 41.2% 20.6%  4.9%  direct:10.1%  skip:18.9%  L0:43.8% L1:41.5% BI:14.8%
[info]: 8x8 transform intra:88.1% inter:45.4%
[info]: coded y,uvDC,uvAC intra: 94.6% 90.6% 78.1% inter: 55.5% 44.3% 13.0%
[info]: i16 v,h,dc,p: 53% 13% 13% 20%
[info]: i8 v,h,dc,ddl,ddr,vr,hd,vl,hu:  9%  7% 14% 11% 13% 12% 11% 12% 12%
[info]: i4 v,h,dc,ddl,ddr,vr,hd,vl,hu: 10% 11%  9%  9% 13% 12% 12% 11% 13%
[info]: i8c dc,h,v,p: 53% 16% 15% 17%
[info]: Weighted P-Frames: Y:2.9% UV:0.4%
[info]: ref P L0: 44.7%  9.4% 25.2% 10.3% 10.0%  0.4%  0.0%
[info]: ref B L0: 81.1% 13.7%  3.9%  1.3%
[info]: ref B L1: 93.1%  6.9%
[info]: kb/s:16703.62
[info]: encoded 145008 frames, 4.124 fps, 16703.62 kb/s, 12043 MB
[info]: ended at Sat Jun 28 09:44:27 2014
[info]: encoding duration 9:46:03







Джерела та подяки: &
ріп відео, оригінальні звук та субтитри - Skazhutin aka SbR (HDClub); українська доріжка - JACKUS - зведення, olgaya - запис з ТБ; українізований постер - офіційний; фільмографії акторів - Lion91 (всі - Гуртом).


ЗАЛИШАЙТЕСЬ ЯКОМОГА ДОВШЕ НА РОЗДАЧІ!

СКАЧАВ САМ - ДАЙ СКАЧАТИ ІНШИМ


 Трекер:    Зареєстрований   

Завантажити / скачати фільм українською



відео для новачків



 Зареєстрований:   2014-11-29 02:15
 Розмір:   13.1 GB 
 Оцінка фільму:   3.6/10 (Голосів: 14)
   
Інші релізи
Ваш часовий пояс: GMT + 2 Години

Нова тема   Відповісти