Завантажити та скачати торренти українською


Право на вбивство / Righteous Kill (2008) 720p Ukr/Eng | sub Multi

Нові коментарі

Нова тема   Відповісти
Автор Повідомлення
Anonymous 







2014-11-29 01:44  
Право на вбивство / Righteous Kill (2008) 720p Ukr/Eng | Sub Multi



Оригінальний постер



Жанр: бойовик, трилер, драма, кримінальний, детектив
Країна: США



Кінокомпанія: Millennium Films, Emmett/Furla Films, Grosvenor Park Media, Righteous Productions, Brooklyn Films, InVenture Entertainment, Nu Image Films, Open Pictures
Режисер: Джон Евнет / Jon Avnet
Актори: Роберт Де Ніро / Robert De Niro, Аль Пачіно / Al Pacino, Фіфті Сент / 50 Cent, Карла Гуджино / Carla Gugino, Джон Легуізамо / John Leguizamo, Донні Волберг / Donnie Wahlberg, Брайан Деннехі / Brian Dennehy, Трілбі Гловер / Trilby Glover, Алан Розенберг / Alan Rosenberg та інші

Сюжет:
Невловимий вбивця-месник за допомогою пістолета вершить своє правосуддя над злочинцями, що зуміли вислизнути з лап закону. Детективи-напарники Девід Фіск і Томас Кований беруться за цю заплутану справу. Проте несподіваний хід кілера плутає всі карти, і друзі виявляються під підозрою у колег. Тепер їм потрібно за будь-яку ціну знайти справжнього «стрільця», щоб зняти з себе звинувачення у серійних вбивствах.


Рейтинг MPAA: R - особам до 17 років обов'язкова присутність батьків або дорослого опікуна
Вікова категорія: 16+

Тривалість: 01:40:47
Якість: 720p [ESiR]
Відео:
кодек:
розмір кадру: 1280x544
бітрейт: 4607 кбіт/с

Аудіо # 1:
мова: українська
переклад: професійний дубльований
кодек: 2.0
бітрейт: 192 кбіт/с

Аудіо # 2:
мова: англійська
переклад: оригінал
кодек: 5.1
бітрейт: 1510 кбіт/с

Аудіо # 3:
мова: англійська
переклад: коментарі
кодек: OGG 2.0
бітрейт: 80 кбіт/с

Субтитри #1-9:
мова: англійська, чеська, німецька, фінська, угорська, польська, румунська, іспанська, шведська
тип: програмні (м'які)
формат: *.ass
MediaInfo
Код:
General
Unique ID                   : 188468195554245303983626398814272254571 (0x8DC9A7759ACC700E8A77BE2141C8726B)
Complete name               : Righteous Kill (2008) [Ukr,Eng sub.Multi] 720p [Hurtom & HDClub].mkv
Format                      : Matroska
Format version              : Version 4 / Version 2
File size                   : 4.50 GiB
Duration                    : 1h 40mn
Overall bit rate mode       : Variable
Overall bit rate            : 6 386 Kbps
Movie name                  : Право на вбивство / Righteous Kill (2008) 720p [Hurtom & HDClub]
Encoded date                : UTC 2014-11-25 09:31:34
Writing application         : mkvmerge v7.3.0 ('Nouages') 64bit built on Oct 22 2014 18:53:34
Writing library             : libebml v1.3.0 + libmatroska v1.4.1
Attachements                : CronosPro-Bold.ttf / CronosPro-Semibold.ttf / CronosPro-SemiboldIt.ttf
DURATION                    : 01:40:47.680000000
NUMBER_OF_FRAMES            : 188990
NUMBER_OF_BYTES             : 145144320
_STATISTICS_WRITING_APP     : mkvmerge v7.3.0 ('Nouages') 64bit built on Oct 22 2014 18:53:34
_STATISTICS_WRITING_DATE_UT : 2014-11-25 09:31:34
_STATISTICS_TAGS            : BPS DURATION NUMBER_OF_FRAMES NUMBER_OF_BYTES

Video
ID                          : 1
Format                      : AVC
Format/Info                 : Advanced Video Codec
Format profile              : [email protected]
Format settings, CABAC      : Yes
Format settings, ReFrames   : 8 frames
Codec ID                    : V_MPEG4/ISO/AVC
Duration                    : 1h 40mn
Bit rate                    : 4 607 Kbps
Width                       : 1 280 pixels
Height                      : 544 pixels
Display aspect ratio        : 2.35:1
Frame rate mode             : Constant
Frame rate                  : 23.976 fps
Color space                 : YUV
Chroma subsampling          : 4:2:0
Bit depth                   : 8 bits
Scan type                   : Progressive
Bits/(Pixel*Frame)          : 0.276
Stream size                 : 3.15 GiB (70%)
Title                       : Право на вбивство / Righteous Kill / Право на убийство (2008) 720p [ESiR]
Writing library             : core 65 r1046M 71d34b4
Encoding settings           : cabac=1 / ref=8 / deblock=1:-3:-3 / analyse=0x3:0x133 / me=umh / subme=9 / psy_rd=0.7:0.7 / mixed_ref=1 / me_range=40 / chroma_me=1 / trellis=2 / 8x8dct=1 / cqm=2 / deadzone=21,11 / chroma_qp_offset=-2 / threads=3 / nr=0 / decimate=1 / mbaff=0 / bframes=3 / b_pyramid=1 / b_adapt=2 / b_bias=0 / direct=1 / wpredb=1 / keyint=250 / keyint_min=25 / scenecut=40(pre) / rc=2pass / bitrate=4607 / ratetol=1.0 / qcomp=0.60 / qpmin=10 / qpmax=45 / qpstep=4 / cplxblur=20.0 / qblur=0.5 / ip_ratio=1.40 / pb_ratio=1.30 / aq=1:0.75
Language                    : English
Default                     : Yes
Forced                      : No
DURATION                    : 01:40:47.954000000
NUMBER_OF_FRAMES            : 145006
NUMBER_OF_BYTES             : 3482799083
_STATISTICS_WRITING_APP     : mkvmerge v7.3.0 ('Nouages') 64bit built on Oct 22 2014 18:53:34
_STATISTICS_WRITING_DATE_UT : 2014-11-25 09:31:34
_STATISTICS_TAGS            : BPS DURATION NUMBER_OF_FRAMES NUMBER_OF_BYTES

Audio #1
ID                          : 2
Format                      : AC-3
Format/Info                 : Audio Coding 3
Mode extension              : CM (complete main)
Format settings, Endianness : Big
Codec ID                    : A_AC3
Duration                    : 1h 40mn
Bit rate mode               : Constant
Bit rate                    : 192 Kbps
Channel(s)                  : 2 channels
Channel positions           : Front: L R
Sampling rate               : 48.0 KHz
Bit depth                   : 16 bits
Compression mode            : Lossy
Stream size                 : 138 MiB (3%)
Title                       : Dub [1+1] 2.0 192 kbps [Hurtom-JACKUS,olgaya]
Language                    : Ukrainian
Default                     : Yes
Forced                      : No

Audio #2
ID                          : 3
Format                      :
Format/Info                 : Digital Theater Systems
Mode                        : 16
Format settings, Endianness : Big
Codec ID                    : A_DTS
Duration                    : 1h 40mn
Bit rate mode               : Constant
Bit rate                    : 1 510 Kbps
Channel(s)                  : 6 channels
Channel positions           : Front: L C R, Side: L R, LFE
Sampling rate               : 48.0 KHz
Bit depth                   : 24 bits
Compression mode            : Lossy
Stream size                 : 1.06 GiB (24%)
Title                       : Original 5.1 1536 Kbps
Language                    : English
Default                     : No
Forced                      : No

Audio #3
ID                          : 4
Format                      : Vorbis
Format settings, Floor      : 1
Codec ID                    : A_VORBIS
Duration                    : 1h 40mn
Bit rate mode               : Variable
Bit rate                    : 80.0 Kbps
Channel(s)                  : 2 channels
Sampling rate               : 48.0 KHz
Compression mode            : Lossy
Stream size                 : 57.7 MiB (1%)
Title                       : Commentary
Writing library             : libVorbis 1.1.1/1.1.2 (UTC 2005-03-04)
Language                    : English
Default                     : No
Forced                      : No

Text #1
ID                          : 5
Format                      : ASS
Codec ID                    : S_TEXT/ASS
Codec ID/Info               : Advanced Sub Station Alpha
Compression mode            : Lossless
Language                    : English
Default                     : Yes
Forced                      : No

Text #2
ID                          : 6
Format                      : ASS
Codec ID                    : S_TEXT/ASS
Codec ID/Info               : Advanced Sub Station Alpha
Compression mode            : Lossless
Language                    : Czech
Default                     : No
Forced                      : No

Text #3
ID                          : 7
Format                      : ASS
Codec ID                    : S_TEXT/ASS
Codec ID/Info               : Advanced Sub Station Alpha
Compression mode            : Lossless
Language                    : Dutch
Default                     : No
Forced                      : No

Text #4
ID                          : 8
Format                      : ASS
Codec ID                    : S_TEXT/ASS
Codec ID/Info               : Advanced Sub Station Alpha
Compression mode            : Lossless
Language                    : Finnish
Default                     : No
Forced                      : No

Text #5
ID                          : 9
Format                      : ASS
Codec ID                    : S_TEXT/ASS
Codec ID/Info               : Advanced Sub Station Alpha
Compression mode            : Lossless
Language                    : Hungarian
Default                     : No
Forced                      : No

Text #6
ID                          : 10
Format                      : ASS
Codec ID                    : S_TEXT/ASS
Codec ID/Info               : Advanced Sub Station Alpha
Compression mode            : Lossless
Language                    : Polish
Default                     : No
Forced                      : No

Text #7
ID                          : 11
Format                      : ASS
Codec ID                    : S_TEXT/ASS
Codec ID/Info               : Advanced Sub Station Alpha
Compression mode            : Lossless
Language                    : Romanian
Default                     : No
Forced                      : No

Text #8
ID                          : 12
Format                      : ASS
Codec ID                    : S_TEXT/ASS
Codec ID/Info               : Advanced Sub Station Alpha
Compression mode            : Lossless
Language                    : Spanish
Default                     : No
Forced                      : No

Text #9
ID                          : 13
Format                      : ASS
Codec ID                    : S_TEXT/ASS
Codec ID/Info               : Advanced Sub Station Alpha
Compression mode            : Lossless
Language                    : Swedish
Default                     : No
Forced                      : No




Джерела та подяки: &
ріп відео, оригінальні звук та субтитри - ESiR (HDbits), HANSMER (HDClub); українська доріжка - JACKUS - зведення, olgaya - запис з ТБ; українізований постер - офіційний; фільмографії акторів - Lion91 (всі - Гуртом).


ЗАЛИШАЙТЕСЬ ЯКОМОГА ДОВШЕ НА РОЗДАЧІ!

СКАЧАВ САМ - ДАЙ СКАЧАТИ ІНШИМ


 Трекер:    Зареєстрований   

Завантажити / скачати фільм українською



відео для новачків



 Зареєстрований:   2014-11-29 01:44
 Розмір:   4.5 GB 
 Оцінка фільму:   5.1/10 (Голосів: 19)
   
Інші релізи
anatolyki 
Новенький


З нами з: 20.12.11
Востаннє: 10.12.16
Повідомлень: 15

2014-11-29 09:00  
Фільм хороший, бачив раніше.
zaika 
VIP


З нами з: 01.07.12
Востаннє: 11.12.16
Повідомлень: 954

2014-12-04 07:55  
Надзвичайно динамічний фільм. Якось навіть не пасує до уже не молодих моїх улюблених акторів. Загалом сподобалось. 8/10.
Ваш часовий пояс: GMT + 2 Години

Нова тема   Відповісти