Завантажити та скачати торренти українською


Королі боулінгу / Kingpin (1996) 720p Ukr/Eng | Sub Eng

Нові коментарі

Нова тема   Відповісти
Автор Повідомлення
Anonymous 







2014-11-22 22:40  
Королі боулінгу / Kingpin (1996) 720p Ukr/Eng | Sub Eng



Жанр: комедія, спорт
Країна: США



Кінокомпанія: Rysher Entertainment, Motion Picture Corporation of America (MPCA)
Режисер: Боббі Фарреллі / Bobby Farrelly, Пітер Фарреллі / Peter Farrelly
Актори: Вуді Гаррельсон / Woody Harrelson, Ренді Квейд / Randy Quaid, Ванесса Енджел / Vanessa Angel, Білл Мюррей / Bill Murray, Кріс Елліот / Chris Elliott, Вільям Джордан / William Jordan, Річард Тайсон / Richard Tyson, Лін Шей / Lin Shaye, Зен Геснер / Zen Gesner, Пруденс Райт Холмс / Prudence Wright Holmes та інші

Сюжет:
Він не п'є, не палить, не керує автомобілем, не спілкується з жінками і в житті не заробив ні копійки. Але якщо він не знайде півмільйона доларів, у його родини заберуть землю. Доводиться прийняти пропозицію підозрілого типа поїхати на чемпіонат з боулінгу ...


Рейтинг MPAA: PG-13 - дітям до 13 років перегляд не бажаний
Вікова категорія: 12+

Тривалість: 01:53:43
Якість: 720p [CRiSC]
Відео:
кодек:
розмір кадру: 1280 х 546
бітрейт: 11.0 Мбіт/с [crf=15.8]

Аудіо # 1:
мова: українська - студія "Стар-Майстер"
переклад: двоголосий закадровий
ролі озвучили: Олег Лепенець та жіночий голос
кодек: 2.0
бітрейт: 192 кбіт/с

Аудіо # 2:
мова: англійська
переклад: оригінал
кодек: 5.1
бітрейт: 1509 кбіт/с

Субтитри:
мова: англійська
тип: програмні (м'які)
формат: *.srt

Збережено оригінальні розділи, як на Blu-ray.
MediaInfo
Код:
General
Unique ID                   : 233291013490334753073408355641743257523 (0xAF8237014F83BE6FA56A2AF8D6462FB3)
Complete name               : Kingpin (1996) [Ukr,Eng sub.Eng] 720p [Hurtom & HDClub].mkv
Format                      : Matroska
Format version              : Version 4 / Version 2
File size                   : 10.3 GiB
Duration                    : 1h 53mn
Overall bit rate            : 12.9 Mbps
Movie name                  : Королі боулінгу / Kingpin (1996) [Hurtom & HDClub]
Encoded date                : UTC 2014-11-22 18:56:31
Writing application         : mkvmerge v7.3.0 ('Nouages') 64bit built on Oct 22 2014 18:53:34
Writing library             : libebml v1.3.0 + libmatroska v1.4.1
DURATION                    : 01:53:00.236000000
NUMBER_OF_FRAMES            : 1186
NUMBER_OF_BYTES             : 43727
_STATISTICS_WRITING_APP     : mkvmerge v7.3.0 ('Nouages') 64bit built on Oct 22 2014 18:53:34
_STATISTICS_WRITING_DATE_UT : 2014-11-22 18:56:31
_STATISTICS_TAGS            : BPS DURATION NUMBER_OF_FRAMES NUMBER_OF_BYTES

Video
ID                          : 1
Format                      : AVC
Format/Info                 : Advanced Video Codec
Format profile              : [email protected]
Format settings, CABAC      : Yes
Format settings, ReFrames   : 11 frames
Codec ID                    : V_MPEG4/ISO/AVC
Duration                    : 1h 53mn
Bit rate                    : 11.0 Mbps
Width                       : 1 280 pixels
Height                      : 546 pixels
Display aspect ratio        : 2.35:1
Frame rate mode             : Constant
Frame rate                  : 23.976 fps
Color space                 : YUV
Chroma subsampling          : 4:2:0
Bit depth                   : 8 bits
Scan type                   : Progressive
Bits/(Pixel*Frame)          : 0.656
Stream size                 : 8.73 GiB (85%)
Title                       : Королі боулінгу / Kingpin / Заводила / Король кегельбану (1996) [CRiSC]
Writing library             : core 142 r2431+42 c69a006 tMod [[email protected]:2:0 X86_64]
Encoding settings           : cabac=1 / ref=11 / deblock=1:-3:-3 / analyse=0x3:0x133 / me=umh / subme=10 / psy=1 / fade_compensate=0.00 / psy_rd=1.20:0.00 / mixed_ref=1 / me_range=24 / chroma_me=1 / trellis=2 / 8x8dct=1 / cqm=0 / deadzone=21,11 / fast_pskip=1 / chroma_qp_offset=-2 / threads=12 / lookahead_threads=2 / sliced_threads=0 / nr=0 / decimate=1 / interlaced=0 / bluray_compat=0 / constrained_intra=0 / fgo=0 / bframes=9 / b_pyramid=2 / b_adapt=2 / b_bias=0 / direct=3 / weightb=1 / open_gop=0 / weightp=2 / keyint=250 / keyint_min=23 / scenecut=40 / intra_refresh=0 / rc_lookahead=60 / rc=crf / mbtree=0 / crf=15.8000 / qcomp=0.65 / qpmin=0:0:0 / qpmax=69:69:69 / qpstep=4 / vbv_maxrate=62500 / vbv_bufsize=78125 / crf_max=0.0 / nal_hrd=none / filler=0 / ip_ratio=1.40 / pb_ratio=1.30 / aq=4:0.85 / aq-sensitivity=10.00 / aq-factor=1.00:1.00:1.00 / aq2=0 / aq3=0
Language                    : English
Default                     : Yes
Forced                      : No
Matrix coefficients         : BT.709
Color range                 : Limited
DURATION                    : 01:53:43.192000000
NUMBER_OF_FRAMES            : 163593
NUMBER_OF_BYTES             : 9586774304
_STATISTICS_WRITING_APP     : mkvmerge v7.3.0 ('Nouages') 64bit built on Oct 22 2014 18:53:34
_STATISTICS_WRITING_DATE_UT : 2014-11-22 18:56:31
_STATISTICS_TAGS            : BPS DURATION NUMBER_OF_FRAMES NUMBER_OF_BYTES

Audio #1
ID                          : 2
Format                      : AC-3
Format/Info                 : Audio Coding 3
Mode extension              : CM (complete main)
Format settings, Endianness : Big
Codec ID                    : A_AC3
Duration                    : 1h 53mn
Bit rate mode               : Constant
Bit rate                    : 192 Kbps
Channel(s)                  : 2 channels
Channel positions           : Front: L R
Sampling rate               : 48.0 KHz
Bit depth                   : 16 bits
Compression mode            : Lossy
Stream size                 : 156 MiB (1%)
Title                       : DVO [StarMajster-Inter, Gamma, 2+2] 2.0 192 kbps [Hurtom-voin747]
Language                    : Ukrainian
Default                     : Yes
Forced                      : No

Audio #2
ID                          : 3
Format                      :
Format/Info                 : Digital Theater Systems
Mode                        : 16
Format settings, Endianness : Big
Codec ID                    : A_DTS
Duration                    : 1h 53mn
Bit rate mode               : Constant
Bit rate                    : 1 509 Kbps
Channel(s)                  : 6 channels
Channel positions           : Front: L C R, Side: L R, LFE
Sampling rate               : 48.0 KHz
Bit depth                   : 24 bits
Compression mode            : Lossy
Stream size                 : 1.20 GiB (12%)
Title                       : Original 5.1 1509 kbps
Language                    : English
Default                     : No
Forced                      : No

Text
ID                          : 4
Format                      : UTF-8
Codec ID                    : S_TEXT/UTF8
Codec ID/Info               : UTF-8 Plain Text
Language                    : English
Default                     : No
Forced                      : No

Menu
00:00:00.000                : :00:00:00.000
00:06:11.079                : :00:06:11.079
00:10:21.454                : :00:10:21.454
00:14:29.285                : :00:14:29.285
00:25:09.341                : :00:25:09.341
00:33:44.814                : :00:33:44.814
00:41:50.382                : :00:41:50.382
00:48:51.386                : :00:48:51.386
00:54:10.163                : :00:54:10.163
01:00:23.369                : :01:00:23.369
01:05:52.823                : :01:05:52.823
01:11:16.897                : :01:11:16.897
01:20:48.218                : :01:20:48.218
01:29:29.780                : :01:29:29.780
01:40:28.689                : :01:40:28.689
01:49:03.203                : :01:49:03.203




Джерела та подяки: &
ріп відео, оригінальні звук та субтитри - CRiSC (HDbits), madoff (HDClub); українська доріжка - voin747 - зведення, xslim, MAKAPOHHIK - запис з ТБ; фільмографії акторів та інформація про озвучення - Віктор (всі - Гуртом).


ЗАЛИШАЙТЕСЬ ЯКОМОГА ДОВШЕ НА РОЗДАЧІ!

СКАЧАВ САМ - ДАЙ СКАЧАТИ ІНШИМ


Срібний реліз (на рейтинг впливає 50% завантаженого)
 Трекер:    Зареєстрований   

Завантажити / скачати фільм українською



відео для новачків



 Зареєстрований:   2014-11-22 22:40
 Розмір:   10.28 GB 
 Оцінка фільму:   3.4/10 (Голосів: 14)
   
Інші релізи
   Королі боулінгу / Kingpin (1996) patriot2305  1 / 0   1.46 GB   2014-02-11 19:07 
   Королі боулінгу / Kingpin [Extended Version] (1996) AVC Ukr/Eng | Sub Eng imonko  1 / 0   2.19 GB   2012-01-29 12:32 
Ваш часовий пояс: GMT + 2 Години

Нова тема   Відповісти