Завантажити та скачати торренти українською


Число 23 [Розширена версія] / The Number 23 [Unrated] (2007) 720p Ukr/Eng | Sub Eng

Нові коментарі

Нова тема   Відповісти
Автор Повідомлення
braveboy 
Відео Гуртом - команда HD
Відео Гуртом - команда HD


З нами з: 15.06.10
Востаннє: 29.10.16
Повідомлень: 958

2014-11-22 00:37  

Число 23 [Розширена версія] / The Number 23 [Unrated] (2007) 720p Ukr/Eng | Sub Eng


Число 23 [Розширена версія] / The Number 23 [Unrated] (2007) 720p Ukr/Eng | Sub Eng


«The truth will find you.»


Жанр: детектив, драма, містика, триллер
Країна: США


Кінокомпанія: New Line Cinema
Режисер: Джоел Шумахер
Актори: Джим Керрі, Вірджинія Медсен, Логан Лерман, Денні Х'юстон, Лінн Коллінз, Рона Мітра, Мішель Артур, Марк Пеллегріно, Пол Бутчер, Девід Стіфел, Корі Столл, Ед Лаутер, Трой Коцур, Уолтер Су Ху, Патриція Белчер

Сюжет:
Співробітник служби з вилову бездомних тварин Уолтер Сперроу береться за читання загадкового роману «Номер 23», який подарувала йому на день народження його дружина Агата. У результаті тихе і спокійне життя Уолтера перетворюється на нестерпні муки, які можуть привести і його, і близьких йому людей до сумного кінця. А виною всьому - число 23. Справа в тому, що роман, в якому розповідається про страшне вбивство, являє собою дзеркальне відображення життя самого Уолтера.
Те, що відбувається з головним героєм книги, похмурим детективом Фінгерлінг, дуже вже нагадує Уолтеру його власну долю. У міру того, як описані в романі події починають повторюватися в реальному житті, Уолтер, як і Фінгерлінг, підпадає під дивну владу числа 23, яке він бачить всюди. Врешті-решт він приходить до переконання, що йому призначено зробити таке ж жахливе вбивство, яке скоїв Фінгерлінг. Змінити ж майбутнє Уолтер зможе лише розкривши таємницю числа...


Тривалість: 01:41:17
Якість: 720p
Відео:
кодек:
розмір кадру: 1280 х 544
бітрейт: 4482 кб/с

Аудіо # 1:
мова: українська
переклад: багатоголосий закадровий
кодек: 2.0
бітрейт: 192 кб/с

Аудіо # 2:
мова: англійська
переклад: оригінал
кодек: 5.1
бітрейт: 1509 кб/с

Джерело озвучення:


Субтитри:
мова: англійська
тип: програмні (м'які)
формат: *.srt
MediaInfo
Video
ID : 1
Format : AVC
Format/Info : Advanced Video Codec
Format profile : [email protected]
Format settings, CABAC : Yes
Format settings, ReFrames : 8 frames
Codec ID : V_MPEG4/ISO/AVC
Duration : 1h 41mn
Bit rate : 4 482 Kbps
Width : 1 280 pixels
Height : 544 pixels
Display aspect ratio : 2.35:1
Frame rate mode : Constant
Frame rate : 23.976 fps
Color space : YUV
Chroma subsampling : 4:2:0
Bit depth : 8 bits
Scan type : Progressive
Bits/(Pixel*Frame) : 0.268
Stream size : 3.09 GiB (71%)
Title : The Number 23 (2007) 720p
Writing library : core 75 r1259M dd026f2
Encoding settings : cabac=1 / ref=8 / deblock=1:-3:-3 / analyse=0x3:0x113 / me=esa / subme=9 / psy=1 / psy_rd=0.9:0.4 / mixed_ref=1 / me_range=32 / chroma_me=1 / trellis=2 / 8x8dct=1 / cqm=0 / deadzone=21,11 / chroma_qp_offset=-4 / threads=6 / nr=0 / decimate=1 / mbaff=0 / bframes=5 / b_pyramid=0 / b_adapt=2 / b_bias=0 / direct=3 / wpredb=1 / keyint=250 / keyint_min=25 / scenecut=40 / rc_lookahead=60 / rc=2pass / mbtree=1 / bitrate=4482 / ratetol=1.0 / qcomp=0.60 / qpmin=10 / qpmax=51 / qpstep=4 / cplxblur=20.0 / qblur=0.5 / vbv_maxrate=50000 / vbv_bufsize=50000 / ip_ratio=1.40 / aq=1:0.70 / pulldown=0 / nal_hrd=0
Language : English
Default : Yes
Forced : No
DURATION : 01:41:16.706000000
NUMBER_OF_FRAMES : 145695
NUMBER_OF_BYTES : 3404354239
_STATISTICS_WRITING_APP : mkvmerge v7.3.0 ('Nouages') 64bit built on Oct 22 2014 18:53:34
_STATISTICS_WRITING_DATE_UTC : 2014-11-21 22:27:07
_STATISTICS_TAGS : BPS DURATION NUMBER_OF_FRAMES NUMBER_OF_BYTES

Audio #1
ID : 2
Format : AC-3
Format/Info : Audio Coding 3
Mode extension : CM (complete main)
Format settings, Endianness : Big
Codec ID : A_AC3
Duration : 1h 41mn
Bit rate mode : Constant
Bit rate : 192 Kbps
Channel(s) : 2 channels
Channel positions : Front: L R
Sampling rate : 48.0 KHz
Bit depth : 16 bits
Compression mode : Lossy
Stream size : 139 MiB (3%)
Title : 2.0 @ 192 Kbps [К1]
Language : Ukrainian
Default : Yes
Forced : No

Audio #2
ID : 3
Format :
Format/Info : Digital Theater Systems
Format profile : ES
Mode : 16
Format settings, Endianness : Big
Codec ID : A_DTS
Duration : 1h 41mn
Bit rate mode : Constant
Bit rate : 1 509 Kbps
Channel(s) : 6 channels
Channel positions : Front: L C R, Side: L R, LFE
Sampling rate : 48.0 KHz
Bit depth : 24 bits
Compression mode : Lossy
Stream size : 1.07 GiB (24%)
Title : 5.1 @ 1536 Kbps
Language : English
Default : No
Forced : No

Text
ID : 4
Format : UTF-8
Codec ID : S_TEXT/UTF8
Codec ID/Info : UTF-8 Plain Text
Title : Full
Language : English
Default : No
Forced : No
Скріншоти



Джерело:


 Трекер:    Зареєстрований   

Завантажити / скачати фільм українською



відео для новачків



 Зареєстрований:   2014-11-22 00:44
 Розмір:   4.38 GB 
 Оцінка фільму:   9.6/10 (Голосів: 11)
   
Інші релізи
   Число 23 [Розширена версія] / The Number 23 [Unrated] (2007) 720p-mini ThEO  1 / 0   2.27 GB   2011-06-29 19:35 
   Число 23 / The Number 23 [Unrated] (2007) MasterYura  2 / 0   1.32 GB   2010-02-23 13:08 
Ваш часовий пояс: GMT + 2 Години

Нова тема   Відповісти