Завантажити та скачати торренти українською


"V" означає Вендетта / V for Vendetta (2005) 720p Ukr/Eng | Sub Ukr/Multi

Нові коментарі

Нова тема   Відповісти
Автор Повідомлення
Anonymous 







2014-11-21 18:33  
"V" означає Вендетта / V for Vendetta (2005) 720p Ukr/Eng | Sub Ukr/Multi


"V" означає Вендетта / V for Vendetta (2005) 720p Ukr/Eng | Sub Ukr/Multi


"Народ не повинен боятися влади, це влада має боятись народу!"


Жанр: фантастика, бойовик, трилер, драма
Країна: Велика Британія, Німеччина

Top 250 #146

Кінокомпанія: Warner Bros., Virtual Studios, Silver Pictures, Anarchos Productions, Studio Babelsberg, Medienboard Berlin-Brandenburg, DC Comics
Режисер: Джеймс МакТейґ / James McTeigue
Актори: Наталі Портман / Natalie Portman, Г'юґо Вівінґ / Hugo Weaving, Стівен Рі / Stephen Rea, Стівен Фрай / Stephen Fry, Джон Гарт / John Hurt, Тім Піґот-Сміт / Tim Pigott-Smith, Руперт Ґрейвз / Rupert Graves, Роджер Аллам / Roger Allam, Бен Майлз / Ben Miles, Шинед К'юзак / Sinead Cusack та інші

Сюжет:
Альтернативна реальність. В Англії, після страшної епідемії невідомого вірусу, що занурив країну у хаос, встановлюється жорстока диктатура владного канцлера з усіма супутніми складовими: комендантською годиною, всевладдям членів партії над простими людьми і, звичайно, сотні таємних стукачів-інформаторів. Одного разу вночі в Лондоні з'являється борець за свободу, відомий як V, який починає партизанську війну з режимом у спробі повернути народу свободу. У цій війні він залучає на свою сторону молоду жінку (Наталі Портман), яку він вирвав з лап таємної поліції...


Рейтинг MPAA: R - особам до 17 років обов'язкова присутність батьків або дорослого опікуна
Вікова категорія: 16+

Тривалість: 02:12:32
Якість: 720p
Відео:
кодек:
розмір кадру: 1280x532
бітрейт: 5450 кб/с

Аудіо # 1: &
мова: українська
переклад: багатоголосий закадровий
ролі озвучили: Юрій Гребельник, Володимир Терещук, Людмила Чиншева і Олег Стальчук
кодек: 2.0
бітрейт: 192 кб/с

Аудіо # 2:
мова: англійська
переклад: оригінал
кодек: 5.1
бітрейт: 1536 кб/с

Субтитри # 1:
мова: українська
тип: програмні (м'які)
формат: *.srt

Субтитри # 2-5:
мова: англійська, польська, французька, болгарська
тип: програмні (м'які)
формат: *.srt
MediaInfo
Код:
General
Unique ID                   : 231517608650079272267152245781405256654 (0xAE2CAB655950B609BB69594B25824BCE)
Complete name               : V for Vendetta (2005) [Ukr,Eng sub.Ukr,Multi] 720p [Hurtom & HDClub].mkv
Format                      : Matroska
Format version              : Version 4 / Version 2
File size                   : 6.62 GiB
Duration                    : 2h 12mn
Overall bit rate            : 7 155 Kbps
Movie name                  : "V" означає Вендетта / V for Vendetta (2005) 720p [Hurtom & HDClub]
Encoded date                : UTC 2014-11-21 15:46:06
Writing application         : mkvmerge v7.3.0 ('Nouages') 64bit built on Oct 22 2014 18:53:34
Writing library             : libebml v1.3.0 + libmatroska v1.4.1
DURATION                    : 02:12:32.320000000
NUMBER_OF_FRAMES            : 248510
NUMBER_OF_BYTES             : 190855680
_STATISTICS_WRITING_APP     : mkvmerge v7.3.0 ('Nouages') 64bit built on Oct 22 2014 18:53:34
_STATISTICS_WRITING_DATE_UT : 2014-11-21 15:46:06
_STATISTICS_TAGS            : BPS DURATION NUMBER_OF_FRAMES NUMBER_OF_BYTES

Video
ID                          : 1
Format                      : AVC
Format/Info                 : Advanced Video Codec
Format profile              : [email protected]
Format settings, CABAC      : Yes
Format settings, ReFrames   : 4 frames
Format settings, GOP        : N=1
Codec ID                    : V_MPEG4/ISO/AVC
Duration                    : 2h 12mn
Bit rate                    : 5 450 Kbps
Width                       : 1 280 pixels
Height                      : 532 pixels
Display aspect ratio        : 2.40:1
Frame rate mode             : Constant
Frame rate                  : 23.976 fps
Color space                 : YUV
Chroma subsampling          : 4:2:0
Bit depth                   : 8 bits
Scan type                   : Progressive
Bits/(Pixel*Frame)          : 0.334
Stream size                 : 4.92 GiB (74%)
Title                       : "V" означає Вендетта / V for Vendetta / «V» значит Вендетта (2005) 720p [CtrlHD]
Writing library             : core 59 r851M e11ef38
Encoding settings           : cabac=1 / ref=4 / deblock=1:-3:-3 / analyse=0x3:0x133 / me=umh / subme=7 / me-prepass=1 / brdo=1 / mixed_ref=1 / me_range=16 / chroma_me=1 / trellis=0 / 8x8dct=1 / cqm=2 / deadzone=6,4 / chroma_qp_offset=0 / threads=3 / nr=0 / decimate=1 / mbaff=0 / fgo=0 / bframes=3 / b_pyramid=1 / b_adapt=1 / b_bias=0 / direct=1 / wpredb=1 / bime=1 / keyint=250 / keyint_min=25 / scenecut=40(pre) / rc=2pass / bitrate=5450 / ratetol=1.0 / rceq='blurCplx^(1-qComp)' / qcomp=1.00 / qpmin=10 / qpmax=51 / qpstep=4 / cplxblur=20.0 / qblur=0.5 / ip_ratio=1.40 / pb_ratio=1.30 / aq=2:0.50
Language                    : English
Default                     : Yes
Forced                      : No
DURATION                    : 02:12:31.980000000
NUMBER_OF_FRAMES            : 190657
NUMBER_OF_BYTES             : 5417413059
_STATISTICS_WRITING_APP     : mkvmerge v7.3.0 ('Nouages') 64bit built on Oct 22 2014 18:53:34
_STATISTICS_WRITING_DATE_UT : 2014-11-21 15:46:06
_STATISTICS_TAGS            : BPS DURATION NUMBER_OF_FRAMES NUMBER_OF_BYTES

Audio #1
ID                          : 2
Format                      : AC-3
Format/Info                 : Audio Coding 3
Mode extension              : CM (complete main)
Format settings, Endianness : Big
Codec ID                    : A_AC3
Duration                    : 2h 12mn
Bit rate mode               : Constant
Bit rate                    : 192 Kbps
Channel(s)                  : 2 channels
Channel positions           : Front: L R
Sampling rate               : 48.0 KHz
Bit depth                   : 16 bits
Compression mode            : Lossy
Stream size                 : 182 MiB (3%)
Title                       : MVO [ICTV,Novyj] 2.0 192 kbps [Hurtom-patriot2305]
Language                    : Ukrainian
Default                     : Yes
Forced                      : No

Audio #2
ID                          : 3
Format                      :
Format/Info                 : Digital Theater Systems
Mode                        : 16
Format settings, Endianness : Big
Codec ID                    : A_DTS
Duration                    : 2h 12mn
Bit rate mode               : Constant
Bit rate                    : 1 510 Kbps
Channel(s)                  : 6 channels
Channel positions           : Front: L C R, Side: L R, LFE
Sampling rate               : 48.0 KHz
Bit depth                   : 24 bits
Compression mode            : Lossy
Stream size                 : 1.40 GiB (21%)
Title                       : Original 5.1 1536 kbps
Language                    : English
Default                     : No
Forced                      : No

Text #1
ID                          : 4
Format                      : UTF-8
Codec ID                    : S_TEXT/UTF8
Codec ID/Info               : UTF-8 Plain Text
Title                       : [HQCLUB]
Language                    : Ukrainian
Default                     : No
Forced                      : No

Text #2
ID                          : 5
Format                      : UTF-8
Codec ID                    : S_TEXT/UTF8
Codec ID/Info               : UTF-8 Plain Text
Language                    : English
Default                     : No
Forced                      : No

Text #3
ID                          : 6
Format                      : UTF-8
Codec ID                    : S_TEXT/UTF8
Codec ID/Info               : UTF-8 Plain Text
Language                    : Polish
Default                     : No
Forced                      : No

Text #4
ID                          : 7
Format                      : UTF-8
Codec ID                    : S_TEXT/UTF8
Codec ID/Info               : UTF-8 Plain Text
Language                    : French
Default                     : No
Forced                      : No

Text #5
ID                          : 8
Format                      : UTF-8
Codec ID                    : S_TEXT/UTF8
Codec ID/Info               : UTF-8 Plain Text
Language                    : Bulgarian
Default                     : No
Forced                      : No




Джерела та подяки: &
ріп відео, оригінальні звук та субтитри - CtrlHD (HDbits), Sunny (HDClub); українська доріжка - patriot2305 - зведення, slavik_v_z, Sando7 - запис з ТБ; українські субтитри - BD CEE, українізований постер - d1mma; фільмографії акторів та інформація про озвучення - Віктор, ORFEO (всі - Гуртом).

Особиста оцінка: 8 - мені сподобалося


ЗАЛИШАЙТЕСЬ ЯКОМОГА ДОВШЕ НА РОЗДАЧІ!

СКАЧАВ САМ - ДАЙ СКАЧАТИ ІНШИМ


 Трекер:    Зареєстрований   

Завантажити / скачати фільм українською



відео для новачків



 Зареєстрований:   2014-11-21 18:33
 Розмір:   6.62 GB 
 Оцінка фільму:   5.1/10 (Голосів: 21)
   
Ваш часовий пояс: GMT + 2 Години

Нова тема   Відповісти