Завантажити та скачати торренти українською


Трансформери. Час вимирання / Transformers. Age of Extinction (2014) 720p-mini (60fps)

Нові коментарі

Нова тема   Відповісти
Автор Повідомлення
Drool 
VIP


З нами з: 17.04.10
Востаннє: 10.12.16
Повідомлень: 1270

2014-11-18 08:44  
Трансформери. Час вимирання / Transformers. Age of Extinction (2014) 720p-mini (60fps)


Жанр: фантастика, екшн
Країна: США



Кінокомпанія: Paramount Pictures
Режисер: Майкл Бей
Актори: Марк Волберґ, Нікола Пельтц, Стенлі Туччі, Келсі Ґреммер, Софія Майлс, Ебіґейл Клейн, Джек Рейнор, Тітус Велівер, Пітер Каллен, ТіДжей Міллер

Сюжет:
Події фільму «Трансформери: Час вимирання» розгортаються через чотири роки після атаки на Чикаго, що показана у попередньому фільмі. Вчений-винахідник Кейд (Марк Волберґ) разом зі своєю донькою Тессою (Нікола Пельтц) роблять несподіване відкриття. Тепер повернення на землю Автороботів та Десептиконів знову стало можливим. Головною проблемою батька та доньки стає те, що впливовий урядовець вирішує заволодіти їхньою знахідкою. Тим часом, група зацікавлених вчених при фінансовій підтримці найуспішніших бізнесменів планети намагається покращити технології до максимального рівня. Життя продовжувалося б у звичному руслі, якби команда древніх могутніх трансформерів не поставила собі за мету руйнування Землі.

Четвертий фільм франшизи «Трансформери: Час вимирання» – перший фільм, повністю знятий новітніми цифровими камерами IMAX 3D. Вартість однієї такої камери перевищує $26млн., що гарантує неймовірно яскраве та видовищне зображення. Творці «Трансформерів» прагнуть, аби кожен наступний фільм був кращим за попередній, тож пишуть сильний сценарій, підбирають найталановитіших акторів, постійно вдосконалюють дизайн машин.


Тривалість: 02:45:07
Якість: 720p-mini
Відео:
кодек:
розмір кадру: 1280x534
бітрейт: 5600 кб/с
частота кадрів: 59.940 кадрів/с

Аудіо:
мова: українська
переклад: професійний дубльований
кодек: 5.1
бітрейт: 384 кб/с
примітка: перекладач тексту: Олекса Негребецький

Субтитри:
мова: українська (форсовані)
тип: програмні (м'які)
формат: *.srt
MediaInfo
General
Unique ID : 313434240890279390110278413847291639849 (0xEBCD3D2FEF7A8A4C51CA646760163829)
Complete name : /mnt/disk_d/Video/Transformers.Age.Of.Extinction.Ukr.Dub.2014..720p.60fps.mkv
Format : Matroska
Format version : Version 4 / Version 2
File size : 6.89 GiB
Duration : 2h 45mn
Overall bit rate : 5 976 Kbps
Movie name : Трансформери. Час вимирання (2014) 720p [60 FPS] | video by NNNB
Encoded date : UTC 2010-02-22 21:41:31
Writing application : mkvmerge v7.3.0 ('Nouages') 64bit built on Nov 4 2014 12:34:56
Writing library : libebml v1.3.0 + libmatroska v1.4.1
DURATION : 02:45:07.456000000
NUMBER_OF_FRAMES : 309608
NUMBER_OF_BYTES : 475557888
_STATISTICS_WRITING_APP : mkvmerge v7.3.0 ('Nouages') 64bit built on Nov 4 2014 12:34:56
_STATISTICS_WRITING_DATE_UTC : 2014-12-17 06:27:35
_STATISTICS_TAGS : BPS DURATION NUMBER_OF_FRAMES NUMBER_OF_BYTES

Video
ID : 1
Format : AVC
Format/Info : Advanced Video Codec
Format profile : [email protected]
Format settings, CABAC : Yes
Format settings, ReFrames : 9 frames
Codec ID : V_MPEG4/ISO/AVC
Duration : 2h 45mn
Bit rate : 5 600 Kbps
Width : 1 280 pixels
Height : 534 pixels
Display aspect ratio : 2.40:1
Frame rate mode : Constant
Frame rate : 59.880 fps
Original frame rate : 59.940 fps
Color space : YUV
Chroma subsampling : 4:2:0
Bit depth : 8 bits
Scan type : Progressive
Bits/(Pixel*Frame) : 0.137
Stream size : 6.31 GiB (92%)
Title : Трансформери. Час вимирання (2014) 720p [60 FPS] | video by NNNB
Writing library : core 130 r2273 b3065e6
Encoding settings : cabac=1 / ref=9 / deblock=1:0:0 / analyse=0x3:0x133 / me=umh / subme=10 / psy=1 / psy_rd=1.00:0.00 / mixed_ref=1 / me_range=28 / chroma_me=1 / trellis=2 / 8x8dct=1 / cqm=0 / deadzone=21,11 / fast_pskip=0 / chroma_qp_offset=-2 / threads=12 / lookahead_threads=1 / sliced_threads=0 / nr=0 / decimate=1 / interlaced=0 / bluray_compat=0 / constrained_intra=0 / bframes=5 / b_pyramid=2 / b_adapt=2 / b_bias=0 / direct=3 / weightb=1 / open_gop=0 / weightp=2 / keyint=250 / keyint_min=25 / scenecut=40 / intra_refresh=0 / rc=2pass / mbtree=0 / bitrate=5600 / ratetol=1.0 / qcomp=0.60 / qpmin=0 / qpmax=69 / qpstep=4 / cplxblur=20.0 / qblur=0.5 / ip_ratio=1.40 / pb_ratio=1.30 / aq=2:1.00
Default : Yes
Forced : Yes
DURATION : 02:45:07.291000000
NUMBER_OF_FRAMES : 593843
NUMBER_OF_BYTES : 6920807988
_STATISTICS_WRITING_APP : mkvmerge v7.3.0 ('Nouages') 64bit built on Nov 4 2014 12:34:56
_STATISTICS_WRITING_DATE_UTC : 2014-12-17 06:27:35
_STATISTICS_TAGS : BPS DURATION NUMBER_OF_FRAMES NUMBER_OF_BYTES

Audio
ID : 2
Format : AC-3
Format/Info : Audio Coding 3
Mode extension : CM (complete main)
Format settings, Endianness : Big
Codec ID : A_AC3
Duration : 2h 45mn
Bit rate mode : Constant
Bit rate : 384 Kbps
Channel(s) : 6 channels
Channel positions : Front: L C R, Side: L R, LFE
Sampling rate : 48.0 KHz
Bit depth : 16 bits
Compression mode : Lossy
Stream size : 454 MiB (6%)
Title : Рідна мова (, 48000 Hz, 5.1, s16, 384 kb/s) | DVD
Language : Ukrainian
Default : Yes
Forced : Yes

Text
ID : 3
Format : UTF-8
Codec ID : S_TEXT/UTF8
Codec ID/Info : UTF-8 Plain Text
Title : Форсовані
Language : Ukrainian
Default : Yes
Forced : Yes
Скріншоти




Джерело:
Особиста оцінка: 8 - мені сподобалося


 Трекер:    Зареєстрований   

Завантажити / скачати фільм українською



відео для новачків



 Зареєстрований:   2014-12-17 08:41
 Розмір:   6.89 GB 
 Оцінка фільму:   9.4/10 (Голосів: 18)
   
wisozkiy88 
Новенький


З нами з: 19.11.13
Востаннє: 09.12.16
Повідомлень: 1

2014-11-18 09:49  
от якби в 3D...
dr_stas 
Відео Гуртом - дизайнер
Відео Гуртом - дизайнер


З нами з: 21.07.09
Востаннє: 09.12.16
Повідомлень: 452

2014-11-18 10:03  
Лише через 60fps варто вантажити, а так фільм на один раз.
Drool 
VIP


З нами з: 17.04.10
Востаннє: 10.12.16
Повідомлень: 1270

2014-11-18 10:11  
Не знаю, мені сподобався, видовищно, дорого, спецефектно. Це фільм для відпочину.
Olexander 
Новенький


З нами з: 05.10.09
Востаннє: 11.11.16
Повідомлень: 22

2014-11-19 15:14  
Занадто вже перевантажений спецефектами.
lemberg_star 
Новенький


З нами з: 24.10.10
Востаннє: 14.11.16
Повідомлень: 21

2014-12-02 17:10  
чи то такий кепський монтаж, чи через fps залізо загиналось(i3 3220 radeon 8750m 1 Gb), але якось не отримав насоложу він картинки, незважаючи на захоплення Трансформерами, мабуть наступної части дивитись не буду
lemberg_star 
Новенький


З нами з: 24.10.10
Востаннє: 14.11.16
Повідомлень: 21

2014-12-04 19:49  
подивився це на кодеку з підвищеним фпс взагалі чуть очі на лоба не вилізли
Drool 
VIP


З нами з: 17.04.10
Востаннє: 10.12.16
Повідомлень: 1270

2014-12-17 11:10  
Доріжку замінено на ліцензію з DVD.
NeetScrool 
Відео Гуртом - фільмокрай
Відео Гуртом - фільмокрай


З нами з: 10.01.13
Востаннє: 10.12.16
Повідомлень: 2226

2015-01-09 19:30  
Drool написано:
Марк Уолберґ, Нікола Пельтц, Стенлі Туччі, Келсі Ґреммер, Софія Майлс, Ебигейл Клейн, Джек Рейнор, Тітус Уеллівер, Пітер Каллен, ТіДжей Міллер

Волберґ, Ебіґейл, Велівер,

Ваш часовий пояс: GMT + 2 Години

Нова тема   Відповісти