Завантажити та скачати торренти українською


Весняні надії / Hope Springs (2012) 720p Ukr/Eng | Sub Eng

Нові коментарі

Нова тема   Відповісти
Автор Повідомлення
Anonymous 







2014-11-14 00:18  
Весняні надії / Hope Springs (2012) 720p Ukr/Eng | Sub Eng



Жанр: комедія, драма, мелодрама, романтичний
Країна: США



Кінокомпанія: Columbia Pictures, Mandate Pictures, Metro-Goldwyn-Mayer, Management 360, Escape Artists
Режисер: Девід Френкел / David Frankel
Актори: Меріл Стріп / Meryl Streep, Томмі Лі Джонс / Tommy Lee Jones, Стів Карелл / Steve Carell, Джин Смарт / Jean Smart, Бен Раппапорт / Ben Rappaport, Марін Айрленд / Marin Ireland, Патрік Дарро / Patrick Darraugh, Бретт Райс / Brett Rice, Беккі Енн Бейкер / Becky Ann Baker, Елізабет Шу / Elisabeth Shue

Сюжет:
Головні герої фільму - подружня пара, яка перебуває у шлюбі більше 30 років. Герої Меріл Стріп та Томмі Лі Джонса намагаються за допомогою доктора Фелда, який займається проблемами розладів у сім’ї, оживити згаслі почуття...


Тривалість: 01:39:53
Якість: 720p [HDbits-EbP]
Відео:
кодек:
розмір кадру: 1280 х 534
бітрейт: 7478 кбіт/с [crf=14]

Аудіо # 1:
мова: українська
переклад: двоголосий закадровий
ролі озвучили: Лідія Муращенко і Олег Лепенець
кодек: 2.0
бітрейт: 192 кбіт/с

Аудіо # 2:
мова: англійська
переклад: оригінал
кодек: 5.1
бітрейт: 640 кбіт/с

Аудіо # 3:
мова: англійська
переклад: коментарі
кодек: 2.0
бітрейт: 192 кбіт/с

Субтитри # 1-5:
мова: англійська (повні / SDH / на коментарі), французька, іспанська
тип: програмні (м'які)
формат: *.srt

Збережено оригінальні розділи, як на Blu-ray.
MediaInfo
Код:
General
Unique ID                                : 249271401822561471804818097475718444491 (0xBB87ECFAFFD24C23853794FB274775CB)
Complete name                            : Hope Springs (2012) [Ukr,Eng sub.Multi] 720p [Hurtom & HDClub].mkv
Format                                   : Matroska
Format version                           : Version 4 / Version 2
File size                                : 6.05 GiB
Duration                                 : 1h 39mn
Overall bit rate                         : 8 675 Kbps
Movie name                               : Весняні надії / Hope Springs (2012) 720p [Hurtom & HDClub]
Encoded date                             : UTC 2014-11-13 18:30:18
Writing application                      : mkvmerge v7.3.0 ('Nouages') 64bit built on Oct 22 2014 18:53:34
Writing library                          : libebml v1.3.0 + libmatroska v1.4.1
DURATION                                 : 01:39:52.960000000
NUMBER_OF_FRAMES                         : 187280
NUMBER_OF_BYTES                          : 143831040
_STATISTICS_WRITING_APP                  : mkvmerge v7.3.0 ('Nouages') 64bit built on Oct 22 2014 18:53:34
_STATISTICS_WRITING_DATE_UTC             : 2014-11-13 18:30:18
_STATISTICS_TAGS                         : BPS DURATION NUMBER_OF_FRAMES NUMBER_OF_BYTES

Video
ID                                       : 1
Format                                   : AVC
Format/Info                              : Advanced Video Codec
Format profile                           : [email protected]
Format settings, CABAC                   : Yes
Format settings, ReFrames                : 12 frames
Codec ID                                 : V_MPEG4/ISO/AVC
Duration                                 : 1h 39mn
Bit rate                                 : 7 478 Kbps
Width                                    : 1 280 pixels
Height                                   : 534 pixels
Display aspect ratio                     : 2.40:1
Frame rate mode                          : Constant
Frame rate                               : 23.976 fps
Color space                              : YUV
Chroma subsampling                       : 4:2:0
Bit depth                                : 8 bits
Scan type                                : Progressive
Bits/(Pixel*Frame)                       : 0.456
Stream size                              : 5.22 GiB (86%)
Title                                    : Весняні надії / Hope Springs / Весенние надежды (2012) 720p [HDbits-EbP]
Writing library                          : core 128 r2216 198a7ea
Encoding settings                        : cabac=1 / ref=12 / deblock=1:-3:-3 / analyse=0x3:0x113 / me=tesa / subme=10 / psy=1 / psy_rd=1.00:0.00 / mixed_ref=1 / me_range=16 / chroma_me=1 / trellis=2 / 8x8dct=1 / cqm=0 / deadzone=21,11 / fast_pskip=0 / chroma_qp_offset=-2 / threads=12 / lookahead_threads=2 / sliced_threads=0 / nr=0 / decimate=0 / interlaced=0 / bluray_compat=0 / constrained_intra=0 / bframes=8 / b_pyramid=2 / b_adapt=2 / b_bias=0 / direct=3 / weightb=1 / open_gop=0 / weightp=2 / keyint=250 / keyint_min=23 / scenecut=40 / intra_refresh=0 / rc=crf / mbtree=0 / crf=14.0 / qcomp=0.60 / qpmin=0 / qpmax=69 / qpstep=4 / ip_ratio=1.40 / pb_ratio=1.30 / aq=1:0.55
Language                                 : English
Default                                  : Yes
Forced                                   : No
Matrix coefficients                      : BT.709
DURATION                                 : 01:39:52.987000000
NUMBER_OF_FRAMES                         : 143688
NUMBER_OF_BYTES                          : 5729037332
_STATISTICS_WRITING_APP                  : mkvmerge v7.3.0 ('Nouages') 64bit built on Oct 22 2014 18:53:34
_STATISTICS_WRITING_DATE_UTC             : 2014-11-13 18:30:18
_STATISTICS_TAGS                         : BPS DURATION NUMBER_OF_FRAMES NUMBER_OF_BYTES

Audio #1
ID                                       : 2
Format                                   : AC-3
Format/Info                              : Audio Coding 3
Mode extension                           : CM (complete main)
Format settings, Endianness              : Big
Codec ID                                 : A_AC3
Duration                                 : 1h 39mn
Bit rate mode                            : Constant
Bit rate                                 : 192 Kbps
Channel(s)                               : 2 channels
Channel positions                        : Front: L R
Sampling rate                            : 48.0 KHz
Bit depth                                : 16 bits
Compression mode                         : Lossy
Delay relative to video                  : 44ms
Stream size                              : 137 MiB (2%)
Title                                    : DVO [1+1] 2.0 192 kbps [Hurtom-karvai0][+44ms]
Language                                 : Ukrainian
Default                                  : Yes
Forced                                   : No

Audio #2
ID                                       : 3
Format                                   : AC-3
Format/Info                              : Audio Coding 3
Mode extension                           : CM (complete main)
Format settings, Endianness              : Big
Codec ID                                 : A_AC3
Duration                                 : 1h 39mn
Bit rate mode                            : Constant
Bit rate                                 : 640 Kbps
Channel(s)                               : 6 channels
Channel positions                        : Front: L C R, Side: L R, LFE
Sampling rate                            : 48.0 KHz
Bit depth                                : 16 bits
Compression mode                         : Lossy
Stream size                              : 457 MiB (7%)
Title                                    : Original 5.1 640 kbps
Language                                 : English
Default                                  : No
Forced                                   : No

Audio #3
ID                                       : 4
Format                                   : AC-3
Format/Info                              : Audio Coding 3
Format profile                           : Dolby Digital
Mode extension                           : CM (complete main)
Format settings, Endianness              : Big
Codec ID                                 : A_AC3
Duration                                 : 1h 39mn
Bit rate mode                            : Constant
Bit rate                                 : 192 Kbps
Channel(s)                               : 2 channels
Channel positions                        : Front: L R
Sampling rate                            : 48.0 KHz
Bit depth                                : 16 bits
Compression mode                         : Lossy
Stream size                              : 137 MiB (2%)
Title                                    : Commentary 2.0 192Kbps
Language                                 : English
Default                                  : No
Forced                                   : No

Text #1
ID                                       : 5
Format                                   : UTF-8
Codec ID                                 : S_TEXT/UTF8
Codec ID/Info                            : UTF-8 Plain Text
Language                                 : English
Default                                  : No
Forced                                   : No

Text #2
ID                                       : 6
Format                                   : UTF-8
Codec ID                                 : S_TEXT/UTF8
Codec ID/Info                            : UTF-8 Plain Text
Title                                    : SDH
Language                                 : English
Default                                  : No
Forced                                   : No

Text #3
ID                                       : 7
Format                                   : UTF-8
Codec ID                                 : S_TEXT/UTF8
Codec ID/Info                            : UTF-8 Plain Text
Title                                    : Commentary
Language                                 : English
Default                                  : No
Forced                                   : No

Text #4
ID                                       : 8
Format                                   : UTF-8
Codec ID                                 : S_TEXT/UTF8
Codec ID/Info                            : UTF-8 Plain Text
Language                                 : French
Default                                  : No
Forced                                   : No

Text #5
ID                                       : 9
Format                                   : UTF-8
Codec ID                                 : S_TEXT/UTF8
Codec ID/Info                            : UTF-8 Plain Text
Language                                 : Spanish
Default                                  : No
Forced                                   : No

Menu
00:00:00.000                             : en:00:00:00.000
00:07:08.887                             : en:00:07:08.887
00:13:29.017                             : en:00:13:29.017
00:17:47.441                             : en:00:17:47.441
00:24:03.275                             : en:00:24:03.275
00:31:19.920                             : en:00:31:19.920
00:36:56.756                             : en:00:36:56.756
00:44:27.039                             : en:00:44:27.039
00:52:50.626                             : en:00:52:50.626
01:00:53.900                             : en:01:00:53.900
01:07:27.710                             : en:01:07:27.710
01:12:04.570                             : en:01:12:04.570
01:15:24.311                             : en:01:15:24.311
01:21:14.787                             : en:01:21:14.787
01:27:12.644                             : en:01:27:12.644
01:33:19.844                             : en:01:33:19.844




Джерела та подяки: &
ріп відео, оригінальні звук та субтитри - EbP (HDbits), AndrewPlacid (HDClub); українська доріжка - karvai0 - зведення, xslim, OlegCena, MAKAPOHHIK - запис з ТБ; фільмографії акторів та інформація про озвучення - Віктор, Neo777 (всі - Гуртом).


ЗАЛИШАЙТЕСЬ ЯКОМОГА ДОВШЕ НА РОЗДАЧІ!

СКАЧАВ САМ - ДАЙ СКАЧАТИ ІНШИМ


 Трекер:    Зареєстрований   

Завантажити / скачати фільм українською



відео для новачків



 Зареєстрований:   2014-11-14 00:18
 Розмір:   6.05 GB 
 Оцінка фільму:   4.4/10 (Голосів: 16)
   
Інші релізи
   Весняні надії / Hope Springs (2012) Ukr/Eng | Sub Eng karvai0  8 / 3   1.72 GB   2013-12-13 16:53 
zaika 
VIP


З нами з: 01.07.12
Востаннє: 07.12.16
Повідомлень: 950

2014-11-18 17:40  
Дуже милий фільм. Одержав масу задоволення. Спасибі. 10/10.
Ваш часовий пояс: GMT + 2 Години

Нова тема   Відповісти