Завантажити та скачати торренти українською


Як малі діти / Little Children (2006) 720p Ukr/Eng | Sub Eng

Нові коментарі

Нова тема   Відповісти
Автор Повідомлення
Anonymous 







2014-11-13 10:48  
Як малі діти / Little Children (2006) 720p Ukr/Eng | Sub Eng



Оригінальний постер



Жанр: драма, романтичний
Країна: США



Кінокомпанія: New Line Cinema, Bona Fide Productions, Standard Film Company
Режисер: Тодд Філд / Todd Field
Актори: Кейт Вінслет / Kate Winslet, Патрік Вілсон / Patrick Wilson, Дженніфер Коннеллі / Jennifer Connelly, Грегг Іделмен / Gregg Edelman, Седі Голдштейн / Sadie Goldstein, Ті Сімпкінс / Ty Simpkins, Ноа Еммерік / Noah Emmerich, Джекі Ерл Хейлі / Jackie Earle Haley та інші

Сюжет:
Екранізація роману Тома Перротти. Ідеальний перебіг життя американського міста: робота, будинок, сім'я, діти. Ідилія? Одноманітність? Нудьга? Інтрига? Все змінюється вночі: заборонені розваги – перелюб, пристрасні сексуальні втіхи, збочення. В цей же час по вулицях розгулює маніяк, котрий ще не повністю визначився у своїх перевагах.


Рейтинг MPAA: R - особам до 17 років обов'язкова присутність батьків або дорослого опікуна
Вікова категорія: 16+

Тривалість: 02:16:47
Якість: 720p
Відео:
кодек:
розмір кадру: 1280 х 534
бітрейт: 3965 кбіт/с

Аудіо # 1:
мова: українська
переклад: двоголосий закадровий
ролі озвучили: Андрій Самінін і Катерина Брайковська
кодек: 2.0
бітрейт: 192 кбіт/с

Аудіо # 2:
мова: англійська
переклад: оригінал
кодек: 5.1
бітрейт: 384 кбіт/с

Субтитри:
мова: англійська
тип: програмні (м'які)
формат: *.srt

Збережено оригінальні розділи.
MediaInfo
Код:
General
Unique ID                                : 223404498794515188933602731725616906788 (0xA8122432644D34ED89A0DABB20350224)
Complete name                            : Little Children (2006) [Ukr,Eng sub.Eng] 720p [Hurtom & HDClub].mkv
Format                                   : Matroska
Format version                           : Version 4 / Version 2
File size                                : 4.43 GiB
Duration                                 : 2h 16mn
Overall bit rate                         : 4 633 Kbps
Movie name                               : Як малі діти / Little Children (2006) 720p [Hurtom & HDClub]
Encoded date                             : UTC 2014-11-13 06:29:51
Writing application                      : mkvmerge v7.3.0 ('Nouages') 64bit built on Oct 22 2014 18:53:34
Writing library                          : libebml v1.3.0 + libmatroska v1.4.1
DURATION                                 : 02:09:39.040000000
NUMBER_OF_FRAMES                         : 1781
NUMBER_OF_BYTES                          : 57142
_STATISTICS_WRITING_APP                  : mkvmerge v7.3.0 ('Nouages') 64bit built on Oct 22 2014 18:53:34
_STATISTICS_WRITING_DATE_UTC             : 2014-11-13 06:29:51
_STATISTICS_TAGS                         : BPS DURATION NUMBER_OF_FRAMES NUMBER_OF_BYTES

Video
ID                                       : 1
Format                                   : AVC
Format/Info                              : Advanced Video Codec
Format profile                           : [email protected]
Format settings, CABAC                   : No
Format settings, ReFrames                : 2 frames
Codec ID                                 : V_MPEG4/ISO/AVC
Duration                                 : 2h 16mn
Bit rate                                 : 3 965 Kbps
Width                                    : 1 280 pixels
Height                                   : 534 pixels
Display aspect ratio                     : 2.40:1
Frame rate mode                          : Constant
Frame rate                               : 23.976 fps
Color space                              : YUV
Chroma subsampling                       : 4:2:0
Bit depth                                : 8 bits
Scan type                                : Progressive
Bits/(Pixel*Frame)                       : 0.242
Stream size                              : 3.79 GiB (86%)
Title                                    : Як малі діти / Little Children / Как малые дети (2006) 720p [HDClub-vlaluk]
Language                                 : English
Default                                  : Yes
Forced                                   : No
Color primaries                          : BT.709
Transfer characteristics                 : BT.709
Matrix coefficients                      : BT.709

Audio #1
ID                                       : 2
Format                                   : AC-3
Format/Info                              : Audio Coding 3
Mode extension                           : CM (complete main)
Format settings, Endianness              : Big
Codec ID                                 : A_AC3
Duration                                 : 2h 16mn
Bit rate mode                            : Constant
Bit rate                                 : 192 Kbps
Channel(s)                               : 2 channels
Channel positions                        : Front: L R
Sampling rate                            : 48.0 KHz
Bit depth                                : 16 bits
Compression mode                         : Lossy
Stream size                              : 188 MiB (4%)
Title                                    : DVO [Novyj] 2.0 192 kbps [Hurtom-Jatx_11,MAKAPOHHIK]
Language                                 : Ukrainian
Default                                  : Yes
Forced                                   : No

Audio #2
ID                                       : 3
Format                                   : AC-3
Format/Info                              : Audio Coding 3
Mode extension                           : CM (complete main)
Format settings, Endianness              : Big
Codec ID                                 : A_AC3
Duration                                 : 2h 16mn
Bit rate mode                            : Constant
Bit rate                                 : 384 Kbps
Channel(s)                               : 6 channels
Channel positions                        : Front: L C R, Side: L R, LFE
Sampling rate                            : 48.0 KHz
Bit depth                                : 16 bits
Compression mode                         : Lossy
Stream size                              : 376 MiB (8%)
Title                                    : Original 5.1 384 kbps
Language                                 : English
Default                                  : No
Forced                                   : No

Text
ID                                       : 4
Format                                   : UTF-8
Codec ID                                 : S_TEXT/UTF8
Codec ID/Info                            : UTF-8 Plain Text
Language                                 : English
Default                                  : No
Forced                                   : No

Menu
00:00:00.000                             : en:Main Titles/Sarah
00:06:11.000                             : en:The Prom King
00:09:49.000                             : en:The Bet
00:17:23.000                             : en:Profound Disorientation
00:20:26.000                             : en:The Committee
00:26:13.000                             : en:Richard
00:32:19.000                             : en:Evening Fitness Walk
00:35:11.000                             : en:The Town Pool
00:44:51.000                             : en:Cooling Off
00:50:42.000                             : en:Scattered Showers
00:55:33.000                             : en:May and Ronnie
00:59:57.000                             : en:The Attic
01:02:06.000                             : en:Riding with Larry
01:11:47.000                             : en:Flaubert
01:21:14.000                             : en:The Test
01:25:39.000                             : en:The Date
01:31:48.000                             : en:Coming Home
01:35:16.000                             : en:Lucy's Mom
01:41:30.000                             : en:The Big Game
01:47:26.000                             : en:Save the Children
01:52:37.000                             : en:Ronnie Comes Home
01:57:39.000                             : en:Running Away
02:10:41.000                             : en:End Credits




Джерела та подяки: &
відео, оригінальні звук та субтитри - vlaluk (HDClub); українська доріжка - vlaluk (HDClub) - синхронізація під , Jatx_11 - зведення, MAKAPOHHIK - запис з ТБ; українізований постер - hellforces; фільмографії акторів та інформація про озвучення - Віктор (всі - Гуртом).


ЗАЛИШАЙТЕСЬ ЯКОМОГА ДОВШЕ НА РОЗДАЧІ!

СКАЧАВ САМ - ДАЙ СКАЧАТИ ІНШИМ


 Трекер:    Зареєстрований   

Завантажити / скачати фільм українською



відео для новачків



 Зареєстрований:   2014-11-13 10:48
 Розмір:   4.43 GB 
 Оцінка фільму:   5.5/10 (Голосів: 20)
   
Інші релізи
   Як малі діти / Little Children (2006) Jatx_11  4 / 0   1.52 GB   2011-06-28 18:11 
aalleexx85 
Відео Гуртом - фільмокрай
Відео Гуртом - фільмокрай


З нами з: 27.07.10
Востаннє: 09.12.16
Повідомлень: 1139

2014-11-13 14:57  
доріжка синхронізувалась під ? бо в попередньому релізі ніби то був розсинхрон
Anonymous 







2014-11-13 14:58  
Так, я перемотував - розсинхрону немає.
waldi-hurtom 
VIP


З нами з: 07.10.12
Востаннє: 09.12.16
Повідомлень: 613

2014-11-25 16:51  
Надзвичайний фільм, навіть не віриться, що американський. До жанру можна додати м'яка комедія. Дякую за реліз! 10 з 10.
Ваш часовий пояс: GMT + 2 Години

Нова тема   Відповісти