Завантажити та скачати торренти українською


Тепло наших тіл / Warm Bodies (2013) AVC | Open Matte

Нові коментарі

Нова тема   Відповісти
Автор Повідомлення
Drool 
VIP


З нами з: 17.04.10
Востаннє: 08.12.16
Повідомлень: 1267

2014-11-10 11:15  
Тепло наших тіл / Warm Bodies (2013) AVC | Open Matte

Жанр: комедія, жахи, романтичний
Країна: США



Кінокомпанія: Summit Entertainment, Make Movies, Mandeville Films
Режисер: Джонатан Лівайн
Актори: Ніколас Голт, Тереза Палмер, Аналей Тіптон, Роб Кордрі, Дейв Франко, Джон Малковіч, Корі Гардрікт та інші

Сюжет:
Світ вражений чумою і стоїть на межі вимирання. Зомбі ходять по землі і їдять живих, які, залишившись в катастрофічній меншості, насилу тримають оборону. Зміни починаються, коли один зомбі, чиє ім'я за життя починалося на "Р", рятує дівчину замість того, щоб її з'їсти. Дружба, яка зав'язалася між представниками ворогуючих сторін, загрожує обом найгіршими наслідками. Але "Р" і Джулі, самі того не підозрюючи, тримають в руках простий і єдиний ключ до порятунку гинучого світу.


Тривалість: 01:37:45
Якість: AVC
Відео:
кодек:
розмір кадру: 1024x576
бітрейт: 2305 кб/с

Аудіо:
мова: українська
переклад: професійний дубльований
кодек: 5.1
бітрейт: 384 кб/с 
MediaInfo
General
Unique ID : 245756122539558855004803005748034159126 (0xB8E2E854A4813994C61537CE381C4216)
Complete name : /mnt/disk/Video/Warm.Bodies.2013.Ukr.Dub.AVC.Open.Matte.mkv
Format : Matroska
Format version : Version 4 / Version 2
File size : 1.84 GiB
Duration : 1h 37mn
Overall bit rate : 2 689 Kbps
Movie name : Тепло наших тіл / Warm Bodies (2013) AVC | Open Matte | rip by potroks
Encoded date : UTC 2010-02-22 21:41:31
Writing application : mkvmerge v7.3.0 ('Nouages') 32bit built on Nov 4 2014 12:35:31
Writing library : libebml v1.3.0 + libmatroska v1.4.1
DURATION : 01:37:45.888000000
NUMBER_OF_FRAMES : 183309
NUMBER_OF_BYTES : 281562624
_STATISTICS_WRITING_APP : mkvmerge v7.3.0 ('Nouages') 32bit built on Nov 4 2014 12:35:31
_STATISTICS_WRITING_DATE_UTC : 2014-11-10 11:34:12
_STATISTICS_TAGS : BPS DURATION NUMBER_OF_FRAMES NUMBER_OF_BYTES

Video
ID : 1
Format : AVC
Format/Info : Advanced Video Codec
Format profile : [email protected]
Format settings, CABAC : Yes
Format settings, ReFrames : 12 frames
Codec ID : V_MPEG4/ISO/AVC
Duration : 1h 37mn
Bit rate : 2 305 Kbps
Width : 1 024 pixels
Height : 576 pixels
Display aspect ratio : 16:9
Frame rate mode : Constant
Frame rate : 23.976 fps
Color space : YUV
Chroma subsampling : 4:2:0
Bit depth : 8 bits
Scan type : Progressive
Bits/(Pixel*Frame) : 0.163
Stream size : 1.54 GiB (84%)
Title : Тепло наших тіл / Warm Bodies (2013) AVC | Open Matte
Writing library : core 130 r2273 b3065e6
Encoding settings : cabac=1 / ref=12 / deblock=1:-2:-2 / analyse=0x3:0x133 / me=umh / subme=11 / psy=1 / psy_rd=1.05:0.00 / mixed_ref=1 / me_range=48 / chroma_me=1 / trellis=2 / 8x8dct=1 / cqm=0 / deadzone=21,11 / fast_pskip=0 / chroma_qp_offset=-2 / threads=9 / lookahead_threads=8 / sliced_threads=0 / nr=0 / decimate=0 / interlaced=0 / bluray_compat=0 / constrained_intra=0 / bframes=13 / b_pyramid=2 / b_adapt=2 / b_bias=0 / direct=3 / weightb=1 / open_gop=0 / weightp=2 / keyint=250 / keyint_min=23 / scenecut=40 / intra_refresh=0 / rc_lookahead=60 / rc=2pass / mbtree=0 / bitrate=2305 / ratetol=1.0 / qcomp=0.70 / qpmin=0 / qpmax=69 / qpstep=4 / cplxblur=20.0 / qblur=0.5 / vbv_maxrate=20000 / vbv_bufsize=25000 / nal_hrd=none / ip_ratio=1.30 / pb_ratio=1.25 / aq=1:0.70
Default : Yes
Forced : Yes
DURATION : 01:37:45.828000000
NUMBER_OF_FRAMES : 140639
NUMBER_OF_BYTES : 1688520195
_STATISTICS_WRITING_APP : mkvmerge v7.3.0 ('Nouages') 32bit built on Nov 4 2014 12:35:31
_STATISTICS_WRITING_DATE_UTC : 2014-11-10 11:34:12
_STATISTICS_TAGS : BPS DURATION NUMBER_OF_FRAMES NUMBER_OF_BYTES

Audio
ID : 2
Format : AC-3
Format/Info : Audio Coding 3
Mode extension : CM (complete main)
Format settings, Endianness : Big
Codec ID : A_AC3
Duration : 1h 37mn
Bit rate mode : Constant
Bit rate : 384 Kbps
Channel(s) : 6 channels
Channel positions : Front: L C R, Side: L R, LFE
Sampling rate : 48.0 KHz
Bit depth : 16 bits
Compression mode : Lossy
Stream size : 269 MiB (14%)
Title : Рідна мова (Dub 5.1 384 лизі)
Language : Ukrainian
Default : Yes
Forced : Yes
Скріншоти




Джерело:
Особиста оцінка: 9 - давно не бачив настільки якісне кіно


 Трекер:    Зареєстрований   

Завантажити / скачати фільм українською



відео для новачків



 Зареєстрований:   2014-11-10 13:48
 Розмір:   1.84 GB 
 Оцінка фільму:   8.1/10 (Голосів: 15)
   
Інші релізи
   Тепло наших тіл / Warm Bodies (2013) AngryBirdsUA  3 / 0   1.46 GB   2014-07-07 21:05 
   Тепло наших тіл / Warm Bodies (2013) 720p Ukr/Eng | Sub Eng 11FrYkT  2 / 0   4.87 GB   2014-04-27 18:29 
bot 
робот


З нами з: 30.09.07
Востаннє: 26.05.05
Повідомлень: 16030

2014-11-10 11:15  
Тему перенесено з Фільми до форуму Анонси релізів


Drool

bot 
робот


З нами з: 30.09.07
Востаннє: 26.05.05
Повідомлень: 16030

2014-11-10 13:48  
Тему перенесено з Анонси релізів до форуму Фільми


Drool

Smpellla 
Новенький


З нами з: 10.11.14
Востаннє: 13.11.14
Повідомлень: 1

2014-11-10 15:10  
Дякую за фільм!!! Сьогодні обов'язково перегляну.
trelxtrel 
VIP


З нами з: 15.12.10
Востаннє: 08.12.16
Повідомлень: 327

2015-08-03 12:19  
Гарний фільм! Доволі банальний і простенький, але це не псує перегляду. Мені сподобався!

На 7/10

Ваш часовий пояс: GMT + 2 Години

Нова тема   Відповісти