Завантажити та скачати торренти українською


Максимальний ризик / Maximum Risk (1996) 720p Ukr/Eng | Sub Eng

Нові коментарі

Нова тема   Відповісти
Автор Повідомлення
Anonymous 







2014-11-09 10:44  
Максимальний ризик / Maximum Risk (1996) 720p Ukr/Eng | Sub Eng



Оригінальні постери:



Жанр: бойовик, трилер, кримінальний, пригодницький
Країна: США



Кінокомпанія: Columbia Pictures Corporation, Roger Birnbaum Productions, Moshe Diamant Production
Режисер: Рінго Лем / Ringo Lam
Актори: Жан-Клод Ван Дамм / Jean-Claude Van Damme, Наташа Хенстрідж / Natasha Henstridge, Жан-Юг Англад / Jean-Hugues Anglade, Зек Грен'є / Zach Grenier, Пол Бен-Віктор / Paul Ben-Victor, Френк Сенгер / Frank Senger, Стефанос Мілтсакакіс / Stefanos Miltsakakis, Френк Ван Кікен / Frank Van Keeken та інші

Сюжет:
Французький поліцейський Ален Моро дізнається про те, що один із загиблих в перестрілці бандитів на ім'я Михайло дуже схожий на нього. І це м'яко сказано: насправді у них просто одне обличчя. Мати Олена несподівано зізнається в тому, що Михайло - це його брат-близнюк, залишений у пологовому будинку за наполяганням сім'ї. Поліцейський вирішує дізнатися про загиблого брата якомога більше. Він відправляється у Нью-Йорк. І чим ближче він до мети, тим менше шансів вижити.


Рейтинг MPAA: R - особам до 17 років обов'язкова присутність батьків або дорослого опікуна
Вікова категорія: 16+

Тривалість: 01:40:39
Якість: 720p [DON]
Відео:
кодек:
розмір кадру: 1280 х 534
бітрейт: 5583 кбіт/с

Аудіо # 1:
мова: українська
переклад: багатоголосий закадровий
ролі озвучили: Жан-Клод Ван Дамм — Владислав Пупков, Ірина Дорошенко і ще один чоловічий голос
кодек: 2.0
бітрейт: 192 кбіт/с

Аудіо # 2:
мова: англійська
переклад: оригінал
кодек: 5.1
бітрейт: 640 кбіт/с

Субтитри:
мова: англійська (два варіанта)
тип: програмні (м'які)
формат: *.srt

Збережено оригінальні розділи, як на Blu-ray.
MediaInfo
Код:
General
Unique ID                                : 196699903186652197288623036741497028027 (0x93FB05FAF4903473BE21674A88927DBB)
Complete name                            : Maximum Risk (1996) [Ukr,Eng sub.Eng] 720p [Hurtom & HDClub].mkv
Format                                   : Matroska
Format version                           : Version 4 / Version 2
File size                                : 4.51 GiB
Duration                                 : 1h 40mn
Overall bit rate                         : 6 412 Kbps
Movie name                               : Максимальний ризик / Maximum Risk (1996) [Ukr,Eng sub.Eng] 720p [Hurtom & HDClub]
Encoded date                             : UTC 2014-11-09 06:13:26
Writing application                      : mkvmerge v7.3.0 ('Nouages') 64bit built on Oct 22 2014 18:53:34
Writing library                          : libebml v1.3.0 + libmatroska v1.4.1
DURATION                                 : 01:38:34.365000000
NUMBER_OF_FRAMES                         : 664
NUMBER_OF_BYTES                          : 24905
_STATISTICS_WRITING_APP                  : mkvmerge v7.3.0 ('Nouages') 64bit built on Oct 22 2014 18:53:34
_STATISTICS_WRITING_DATE_UTC             : 2014-11-09 06:13:26
_STATISTICS_TAGS                         : BPS DURATION NUMBER_OF_FRAMES NUMBER_OF_BYTES

Video
ID                                       : 1
Format                                   : AVC
Format/Info                              : Advanced Video Codec
Format profile                           : [email protected]
Format settings, CABAC                   : Yes
Format settings, ReFrames                : 12 frames
Codec ID                                 : V_MPEG4/ISO/AVC
Duration                                 : 1h 40mn
Bit rate                                 : 5 583 Kbps
Width                                    : 1 280 pixels
Height                                   : 534 pixels
Display aspect ratio                     : 2.40:1
Frame rate mode                          : Constant
Frame rate                               : 23.976 fps
Color space                              : YUV
Chroma subsampling                       : 4:2:0
Bit depth                                : 8 bits
Scan type                                : Progressive
Bits/(Pixel*Frame)                       : 0.341
Stream size                              : 3.83 GiB (85%)
Title                                    : Максимальний ризик / Maximum Risk / Максимальный риск (1996) 720p [DON]
Writing library                          : core 118 r2085 8a62835
Encoding settings                        : cabac=1 / ref=12 / deblock=1:-3:-3 / analyse=0x3:0x133 / me=umh / subme=10 / psy=1 / psy_rd=1.20:0.20 / mixed_ref=1 / me_range=32 / chroma_me=1 / trellis=2 / 8x8dct=1 / cqm=0 / deadzone=21,11 / fast_pskip=0 / chroma_qp_offset=-3 / threads=6 / sliced_threads=0 / nr=0 / decimate=1 / interlaced=0 / bluray_compat=0 / constrained_intra=0 / bframes=7 / b_pyramid=2 / b_adapt=2 / b_bias=0 / direct=1 / weightb=1 / open_gop=0 / weightp=2 / keyint=250 / keyint_min=23 / scenecut=40 / intra_refresh=0 / rc_lookahead=40 / rc=2pass / mbtree=1 / bitrate=5583 / ratetol=1.0 / qcomp=0.60 / qpmin=0 / qpmax=51 / qpstep=4 / cplxblur=20.0 / qblur=0.5 / vbv_maxrate=50000 / vbv_bufsize=50000 / nal_hrd=none / ip_ratio=1.40 / aq=1:0.80
Language                                 : English
Default                                  : Yes
Forced                                   : No
DURATION                                 : 01:40:35.066000000
NUMBER_OF_FRAMES                         : 144697
NUMBER_OF_BYTES                          : 4208151455
_STATISTICS_WRITING_APP                  : mkvmerge v7.3.0 ('Nouages') 64bit built on Oct 22 2014 18:53:34
_STATISTICS_WRITING_DATE_UTC             : 2014-11-09 06:13:26
_STATISTICS_TAGS                         : BPS DURATION NUMBER_OF_FRAMES NUMBER_OF_BYTES

Audio #1
ID                                       : 2
Format                                   : AC-3
Format/Info                              : Audio Coding 3
Mode extension                           : CM (complete main)
Format settings, Endianness              : Big
Codec ID                                 : A_AC3
Duration                                 : 1h 40mn
Bit rate mode                            : Constant
Bit rate                                 : 192 Kbps
Channel(s)                               : 2 channels
Channel positions                        : Front: L R
Sampling rate                            : 48.0 KHz
Bit depth                                : 16 bits
Compression mode                         : Lossy
Stream size                              : 138 MiB (3%)
Title                                    : MVO [K1] 2.0 192 kbps [Hurtom-JACKUS,SweetN]
Language                                 : Ukrainian
Default                                  : Yes
Forced                                   : No

Audio #2
ID                                       : 3
Format                                   : AC-3
Format/Info                              : Audio Coding 3
Mode extension                           : CM (complete main)
Format settings, Endianness              : Big
Codec ID                                 : A_AC3
Duration                                 : 1h 40mn
Bit rate mode                            : Constant
Bit rate                                 : 640 Kbps
Channel(s)                               : 6 channels
Channel positions                        : Front: L C R, Side: L R, LFE
Sampling rate                            : 48.0 KHz
Bit depth                                : 16 bits
Compression mode                         : Lossy
Stream size                              : 460 MiB (10%)
Title                                    : Original 5.1 640 kbps
Language                                 : English
Default                                  : No
Forced                                   : No

Text #1
ID                                       : 4
Format                                   : UTF-8
Codec ID                                 : S_TEXT/UTF8
Codec ID/Info                            : UTF-8 Plain Text
Language                                 : English
Default                                  : No
Forced                                   : No

Text #2
ID                                       : 5
Format                                   : UTF-8
Codec ID                                 : S_TEXT/UTF8
Codec ID/Info                            : UTF-8 Plain Text
Language                                 : English
Default                                  : No
Forced                                   : No

Menu
00:00:00.000                             : en:Chapter 01
00:08:53.658                             : en:Chapter 02
00:12:40.593                             : en:Chapter 03
00:20:03.869                             : en:Chapter 04
00:26:00.183                             : en:Chapter 05
00:32:06.883                             : en:Chapter 06
00:35:44.267                             : en:Chapter 07
00:43:14.425                             : en:Chapter 08
00:50:43.623                             : en:Chapter 09
00:57:10.260                             : en:Chapter 10
01:04:18.271                             : en:Chapter 11
01:09:21.407                             : en:Chapter 12
01:12:14.538                             : en:Chapter 13
01:18:02.010                             : en:Chapter 14
01:21:30.135                             : en:Chapter 15
01:29:23.024                             : en:Chapter 16




Джерела та подяки: &
ріп відео, оригінальні звук та субтитри - DON (HDbits), neofilm (HDClub); українська доріжка - JACKUS - зведення, SweetN - запис з ТБ; українізований постер - Тирік; фільмографії акторів та інформація про озвучення - Віктор (всі - Гуртом).


ЗАЛИШАЙТЕСЬ ЯКОМОГА ДОВШЕ НА РОЗДАЧІ!

СКАЧАВ САМ - ДАЙ СКАЧАТИ ІНШИМ


Срібний реліз (на рейтинг впливає 50% завантаженого)
 Трекер:    Зареєстрований   

Завантажити / скачати фільм українською



відео для новачків



 Зареєстрований:   2014-11-09 10:44
 Розмір:   4.51 GB 
 Оцінка фільму:   3.1/10 (Голосів: 13)
   
Інші релізи
Ваш часовий пояс: GMT + 2 Години

Нова тема   Відповісти